<?xml version="1.0" standalone="no"?>
<!DOCTYPE svg PUBLIC "-//W3C//DTD SVG 1.1//EN" "http://www.w3.org/Graphics/SVG/1.1/DTD/svg11.dtd" >
<svg>
<metadata>
Created by FontForge 20090622 at Mon Feb  6 13:49:56 2017
 By deploy user
&#194;&#169; 2007 Igino Marini (www.iginomarini.com) With Reserved Font Name IM FELL English SC
</metadata>
<defs>
<font id="IM_FELL_English_SC" horiz-adv-x="1380" >
  <font-face 
    font-family="IM FELL English SC"
    font-weight="400"
    font-stretch="normal"
    units-per-em="2048"
    panose-1="2 0 0 0 0 0 0 0 0 0"
    ascent="1638"
    descent="-410"
    x-height="881"
    cap-height="1406"
    bbox="-350.25 -588 5298 1854"
    underline-thickness="84"
    underline-position="-116"
    unicode-range="U+0020-U+E054"
  />
<missing-glyph horiz-adv-x="1368" 
d="M1089 28v1235h-812v-1235h812zM251 1291h865v-1291h-865v1291z" />
    <glyph glyph-name=".notdef" horiz-adv-x="1368" 
d="M1089 28v1235h-812v-1235h812zM251 1291h865v-1291h-865v1291z" />
    <glyph glyph-name=".null" horiz-adv-x="461" 
 />
    <glyph glyph-name="nonmarkingreturn" horiz-adv-x="461" 
 />
    <glyph glyph-name="space" unicode=" " horiz-adv-x="439" 
 />
    <glyph glyph-name="space" unicode="&#xa0;" horiz-adv-x="439" 
 />
    <glyph glyph-name="exclam" unicode="!" horiz-adv-x="558" 
d="M187 97q0 29 7.5 57t30.5 47h9t13.5 0.5t13.5 0.5h9q21 0 41.5 -4t36 -14.5t25 -27.5t9.5 -42q0 -54 -24 -80.5t-81 -26.5h-19q-12 0 -24.5 2t-17.5 10q-2 3 -6.5 11t-9 17l-8.5 17.5t-5 11.5v21zM197 498v21q0 11 1 38.5t2.5 58t3 57.5t2.5 38q7 2 8.5 7t1.5 10v9
q0 13 -4 27t-9.5 27.5t-10 27t-5.5 27.5v126q0 1 -1.5 5.5l-3 9t-3 8.5t-1.5 5l-3 14.5t-3.5 18.5t-2.5 16.5t-1 9.5v81v81q3 9 9 19.5t14 19.5t17 15.5t17 6.5q2 0 8 -2l12.5 -4l13 -4t8.5 -2q1 0 8 4.5t9 7.5h8h11l20.5 -15.5t22.5 -18.5t20 -21.5t13 -24.5
q1 -3 1.5 -11.5t1 -18.5t0.5 -19v-13v-16t-0.5 -20t-1 -17.5t-1.5 -8.5q0 -5 -2.5 -23t-6 -39.5l-6.5 -40.5t-4 -24q0 -4 1 -26.5t1 -42.5q0 -22 -2 -26q0 -3 -1 -10l-2 -14.5t-2 -14t-2 -9.5v-356q0 -8 -1.5 -22.5t-3.5 -30t-4 -28t-3 -16.5q-3 -14 -15.5 -26t-27.5 -12h-6
q-50 34 -72.5 75.5t-22.5 105.5z" />
    <glyph glyph-name="quotedbl" unicode="&#x22;" horiz-adv-x="1018" 
d="M110 753q0 17 7.5 32.5t18 30l21.5 29t19 30.5q1 1 4.5 8.5l7.5 16l8 16.5t6 10q10 15 27.5 30.5l35 31.5t30.5 34.5t13 39.5q0 9 0.5 25.5t2.5 24.5q2 17 4.5 27t2.5 30q0 9 -7.5 18.5t-18 17.5t-22 14.5t-20.5 10.5q-1 0 -1 1v1l-17.5 -2.5t-21 -3.5t-19.5 -3.5
t-13 -1.5q-22 0 -44.5 12t-40.5 30t-29 40t-11 43t9 45.5t25 45.5t37 35t45 14q13 4 25 6.5t25 2.5q14 0 27 -2.5t27 -6.5q2 0 6 -3.5t6 -5.5q43 -15 82.5 -41.5t68.5 -62t46.5 -79.5t17.5 -95q0 -68 -12.5 -124.5t-38.5 -106t-65.5 -93.5t-93.5 -86l-28.5 -23.5t-27.5 -20
t-31.5 -13.5t-40.5 -5q-6 0 -14.5 0.5t-17 3t-14.5 8t-6 14.5zM546 753q0 15 7.5 30.5t19 29.5t24.5 26.5t25 22.5l71 108l64 104q2 2 4 10.5t5 10.5q0 40 -2 66.5t-7.5 43t-16 23.5t-28.5 7q-13 -5 -28 -7.5t-30 -2.5q-37 0 -70 10q-12 4 -27 16.5t-27.5 28.5t-21 32.5
t-8.5 29.5q0 34 13 63t35.5 50.5t53 34t65.5 12.5q17 0 45.5 -7t58 -18.5t54.5 -25.5t36 -27q3 -5 6.5 -11.5t3.5 -7.5l9 -23l10 -10.5l15 -16.5t15 -18t10 -14q3 -22 14.5 -43.5t11.5 -44.5q0 -11 -1 -20t-4 -20q-5 -15 -7 -26.5t-2 -24.5q0 -7 1 -12.5t3 -12.5l3.5 -13.5
t1.5 -10.5q0 -19 -4 -34t-11 -28.5t-15 -27l-17 -28.5q-18 -29 -29.5 -55t-34.5 -60q-22 -27 -52 -51.5t-64 -43t-70.5 -29t-70.5 -10.5h-25q-4 3 -8 10t-4 15z" />
    <glyph glyph-name="numbersign" unicode="#" horiz-adv-x="1644" 
d="M767 163q0 16 6 29.5t13.5 26t14 26t8.5 28.5q1 16 2.5 25t3.5 15t4.5 10.5t4.5 10.5q3 4 6.5 10.5t6.5 17.5q2 9 3 14.5t3 10.5t6.5 11.5t14.5 18.5q-1 7 -1 12v10v14t1 18q0 4 3.5 9t3.5 10h-2q-1 0 -2.5 0.5t-3.5 0.5q-15 0 -48 -3.5t-82 -10.5l-95 13q-25 0 -25 -9
h-64q0 -18 -13 -26q-5 -2 -9.5 -8t-9.5 -6q0 -8 0.5 -13.5t0.5 -10.5q0 -21 -3.5 -30t-10.5 -13q0 -32 -1 -54.5t-6 -34.5q-1 -4 -12 -12t-15 -10q-8 -13 -9.5 -22.5t-1.5 -22.5q0 -14 -1 -17q-3 -14 -7.5 -19.5t-8.5 -9.5t-7.5 -9t-6.5 -18l-53 -20q-6 0 -15 10t-18 22
t-15 22.5t-6 12.5q0 16 4 28.5t9.5 24.5l11 24t8.5 27q2 4 3 15t6 16q1 14 8.5 26.5t11.5 30.5q0 2 0.5 8.5t1.5 14t2 14t1 8.5q2 4 14 15t14 18q0 4 -0.5 10.5t-4.5 6.5q-17 -9 -32 -13t-16 -4q-5 2 -8.5 2h-7.5q-11 0 -19.5 -2.5t-16.5 -5.5t-16.5 -5.5t-18.5 -2.5l-66 9
q-20 -4 -26.5 -5.5t-11.5 -1.5q-13 0 -29.5 2t-31.5 7.5t-25.5 15.5t-10.5 27q0 8 5 20t12.5 23.5t16 21t15.5 13.5q49 7 81.5 9.5t61.5 2.5h44.5t44.5 -2q24 -7 32.5 -8.5t10.5 -1.5q45 13 64 35t26.5 50.5t12 61.5t21.5 69q3 8 8.5 11.5t10 7t8 8t3.5 14.5q-1 1 -1 3
q-1 2 -1 4q-7 0 -10.5 0.5t-7 2t-8.5 3t-14 3.5q-6 -2 -11 -3t-13 -1l-38 7q-9 0 -18 -4t-18 -9.5t-18.5 -9.5t-19.5 -4l-63 15q-20 -5 -26.5 -7.5t-11.5 -2.5q-13 0 -29.5 2.5t-31 8.5t-24.5 16.5t-10 27.5q0 8 4.5 19.5t11 23.5t15 21.5t16.5 13.5h28l204 10l39 -12
q15 0 30 7.5t33 11.5q5 0 15 -3.5t12 -3.5q1 1 3 2q3 3 3 5q23 38 40.5 86t26.5 93v26q0 4 5 10.5t7 11.5q9 8 12.5 15t3.5 18q0 22 8 41.5t21 36.5t30 31.5t36 25.5q14 0 23.5 -9t15 -21.5t7.5 -24.5t2 -18q0 -13 -8.5 -18.5t-8.5 -12.5q4 -8 6.5 -21.5t3.5 -18.5
q0 -10 -3 -16t-7.5 -11t-9.5 -9t-9 -10q-1 -3 -4 -13l-6.5 -22.5t-6 -24.5t-2.5 -17q0 -25 -5.5 -41.5t-13.5 -30l-16 -26t-12 -30.5l135 -7h75q17 0 35.5 0.5t36 3t32.5 7t25 12.5q0 1 6.5 18.5l14 39.5l14 41.5t5.5 23.5v31q2 6 7.5 11l11.5 10t11 11t5 13q0 24 5.5 44.5
t14 38.5t18 34.5t17.5 32.5q7 2 13 3t11 1q14 0 23.5 -3t9.5 -6q8 -17 17 -27.5t14 -15.5q0 -5 -3 -14t-7 -18t-7 -16.5t-3 -8.5q1 -12 1 -20v-13q0 -11 -1.5 -16t-4 -9t-6.5 -8t-10 -12q-5 -6 -6.5 -12t-3 -13.5t-4 -17t-9.5 -23.5l7 -33q0 -8 -1.5 -18t-4.5 -20t-8 -18
t-12 -11l68 5q11 0 19 -7.5t22 -7.5q11 0 23.5 7.5t28.5 7.5l102 -5l76 5q19 0 27.5 -16.5t12.5 -31.5q-26 -32 -58.5 -50t-72.5 -18h-15t-3 2q-20 -3 -38 -7.5t-22 -6.5l-11.5 -5.5t-18.5 -3.5t-20 9q-16 -2 -21.5 -2h-9.5h-35.5t-11.5 2q-21 -11 -33 -16t-28 -5
q-18 5 -26 5.5t-12 0.5q-17 -16 -25.5 -32t-13 -33t-6 -35t-5.5 -39q-4 -10 -13.5 -24l-19 -28l-17 -25.5t-7.5 -15.5q2 -7 4.5 -14t4.5 -9q10 3 26 5.5t33.5 4t34 2t28.5 0.5l39 -12q11 0 24 6t29 6l102 -7l76 7q19 0 28.5 -16t13.5 -30q-50 -71 -133 -71q-5 0 -11.5 2.5
t-7.5 2.5q-2 0 -13 -5t-15 -5q-8 0 -16.5 -2.5t-16.5 -4.5q-14 -6 -24 -6q-9 1 -16 3l-12 2t-8 1q-5 -2 -10 -2h-10h-38t-8 2q-18 -16 -31.5 -18.5t-27.5 -2.5l-78 15q-7 -5 -8 -15t-1 -19l-32 -76q-2 -4 -4 -12t-3 -16t-1.5 -15.5t-0.5 -10.5q0 -20 -3 -32t-9 -22
t-14.5 -20.5t-20.5 -27.5q-5 -12 -5 -16q0 -11 1 -16t1 -10q0 -4 -1 -7t-1 -5q-2 -4 -9.5 -13t-11.5 -11q-1 -5 -4 -14t-3 -14q-13 -8 -25.5 -11.5t-27.5 -3.5q-6 0 -15.5 8.5t-18.5 19.5t-15.5 22t-6.5 16zM741 877q-28 0 -44 -4.5t-25 -15t-12 -27t-5 -41.5
q-2 -26 -12.5 -40t-10.5 -15t-1 -6t-2 -11t-1.5 -11l-0.5 -5q-8 -13 -15 -19t-12.5 -9.5t-9 -8.5t-3.5 -17q-3 -3 -3 -28v-29l170 10q6 0 25 -1.5t66 -8.5q23 0 44.5 1t37.5 9q2 0 8 21l13.5 48l14.5 52.5t10 34.5q3 6 5 7.5t4.5 2t5.5 1.5t6 6q17 35 17 87
q-15 17 -26.5 21.5t-25.5 4.5l-124 -24z" />
    <glyph glyph-name="dollar" unicode="$" horiz-adv-x="1134" 
d="M568 -107v51t-1 22.5t-2 19.5l-4 42l-166 7q-26 9 -55.5 13.5l-58.5 9t-56.5 11.5t-48.5 21.5t-33.5 39t-12.5 64.5v26l19 190q4 8 7 12.5t14 4.5q21 0 31 -19q39 -53 67.5 -104l60.5 -109q5 -12 32 -25t61.5 -24t70.5 -20t59 -12q-3 31 -3 64l17 45q0 8 -2.5 14.5
t-6 13.5t-6 14.5t-2.5 18.5q4 48 5.5 86t1.5 75q0 26 -1.5 55t-4.5 59v67q-10 9 -17.5 18.5t-21.5 16.5q-3 0 -10.5 1.5t-16 3.5t-16 3.5t-9.5 1.5l-52 54q-14 10 -25.5 15t-21.5 8.5t-19.5 8.5t-21.5 16q-9 8 -14 16t-8 16t-5.5 16t-7.5 16q-2 8 -8.5 19l-10.5 18
q-23 27 -37 46t-21.5 38t-10 41.5t-2.5 57.5q0 42 10 87.5t29 88.5t47 81t63 65q10 10 22.5 14.5t25.5 6.5t27 3t27 3q12 2 22 7.5l20 11.5t21 11t23 7l-5 117q0 5 0.5 11.5t3 12.5t7 10.5t12.5 5.5q14 3 24.5 4t20.5 1q20 0 31 -4.5t22 -8.5q0 -5 2.5 -21t2.5 -24
q3 0 5 -10.5l4 -21.5v-20l10 -47l-3 -16q9 -1 17 -3t16 -3q26 -7 47.5 -16.5t49.5 -9.5q19 0 34.5 11t30 24t31 24t37.5 11q10 0 16 -5t9.5 -13t4.5 -17t1 -16l-19 -66l9 -118v-26q0 -27 -2 -45.5t-9 -45.5q-1 -5 -6 -9.5t-8 -4.5q0 -2 -6 -2q-5 0 -16 13t-25 33l-30.5 44
l-32.5 46.5t-30.5 40.5t-25.5 25q-23 14 -52 23.5t-58 13.5l-6 -31l16 -123l-9 -45q5 -15 7.5 -23.5t4 -13t1.5 -6.5v-4q0 -16 -2.5 -21.5t-10.5 -16.5q7 -8 12.5 -33.5t9.5 -55t6 -56.5t2 -38l-5 -37q18 -9 37.5 -17.5l46.5 -20.5l116 -74q2 -1 5 -3.5t6 -4.5q4 -3 7 -6
l17 -50q4 -7 7.5 -15.5t7.5 -12.5q3 -2 10 -10t14.5 -17.5t13.5 -18t6 -11.5q3 -6 7.5 -17.5l9 -23.5t7.5 -22.5t3 -15.5v-148q0 -1 -4 -12.5t-9 -19.5q-4 -1 -6 -6q-1 -3 -1 -5q-2 -3 -5.5 -13l-7.5 -22l-7.5 -22t-5.5 -12q-3 -9 -10.5 -19t-16.5 -19t-17.5 -16t-12.5 -10
q-9 -12 -10 -26t-13 -21q-33 -12 -55.5 -26.5t-42 -28.5t-38.5 -25.5t-44 -17.5l-3 -14v14q-4 -2 -12 -2q-3 -15 -6 -42q0 -26 6.5 -48t7.5 -54q-10 -1 -10 -17v-3q0 -9 -1 -20.5t-7 -21t-18.5 -16t-34.5 -6.5q-17 0 -27 4.5t-19 27.5v63zM535 1346q-25 -3 -43.5 -11
t-33 -21t-26.5 -31.5t-22 -42.5q-10 -22 -16.5 -34.5t-11 -23.5t-6.5 -23.5t-2 -34.5q0 -45 13 -79.5t35.5 -61t52.5 -46t65 -32.5q3 20 9 46l-7 18t-7 22l14 50q0 12 -7 27.5t-7 33.5l7 116zM670 242q2 -5 8 -28.5t12 -50.5h2l42 10q4 0 17.5 21.5l28.5 47.5q18 30 38 69
q0 2 1 11t2 19.5t2 20t1 13.5v16q0 11 -1 19.5t-2.5 17t-4 18.5l-6.5 25l-2 5q-8 11 -20 20.5t-23 20.5q-12 17 -16.5 26t-9.5 15t-14 11t-29 14q-2 0 -7.5 1.5t-10.5 3.5q-5 -26 -11 -51t-6 -46q0 -29 8 -60t8 -63l-6 -38v-46.5t-0.5 -24.5t-0.5 -11v-6z" />
    <glyph glyph-name="percent" unicode="%" horiz-adv-x="1529" 
d="M246 -183q3 17 9 29t13.5 22.5l15.5 21t16 24.5l15 27q4 16 11 25t13 22l21 47q0 2 4.5 5t10 6l10.5 5.5t6 4.5l9 43q3 12 10 20.5t15 16.5l15.5 15.5t12.5 16.5q4 4 11 14t13.5 20.5t11.5 20t6 13.5q1 3 11 23.5t23.5 44t28 42.5t24.5 19q29 33 49 77l37 81l61 86
l30.5 68t19 37.5t12 16.5t7.5 6q11 27 29.5 60l40 68l44 70l42 65.5t34 55.5t19.5 39q10 23 22.5 40.5t41.5 17.5q13 0 28 -3q13 -2 25 -10.5t27 -22.5l-10 -52q-2 -2 -9 -10.5t-9 -10.5q-10 -18 -12.5 -38.5t-13.5 -40.5q-6 -13 -16.5 -17.5t-24.5 -13.5q-4 -7 -6 -13.5
t-4 -24.5q-31 -50 -50.5 -77.5t-31 -40.5t-15.5 -15t-5 -1.5t1 -1t2 -11.5q-4 -16 -8.5 -25.5t-9 -15t-9 -9t-8.5 -7.5q-3 -5 -9 -13.5t-11.5 -18.5t-9.5 -20t-5 -17q-5 -26 -15 -42.5t-19.5 -26.5t-17.5 -16t-10 -10q0 -4 -6 -10.5t-8 -8.5q-6 -20 -14 -34.5t-18.5 -26
t-23 -22.5t-25.5 -24q-9 -9 -13.5 -20t-9.5 -20q-4 -32 -6.5 -44.5t-6.5 -19.5q-19 -13 -27 -29t-10 -18q-1 -3 -7 -7t-13 -7.5l-13 -6.5t-8 -3q-7 -7 -13 -24t-12 -36.5t-12 -36.5t-13 -24q-2 -3 -7 -6t-10 -6.5t-8.5 -6.5t-2.5 -5q2 -7 2 -11v-8q0 -6 -2 -9
q-5 -23 -19.5 -34.5t-22.5 -14.5q-9 -20 -11.5 -31t-14.5 -15q-1 -4 -1.5 -13t-5.5 -20q-2 -15 -5.5 -25.5t-9 -19t-14.5 -15.5t-22 -14q-7 -4 -10.5 -10.5t-5 -14l-3 -15.5t-4.5 -16q-8 -11 -13.5 -14.5t-10 -6t-8.5 -7.5t-8 -19l-59 -6q-6 2 -12.5 13t-11.5 24t-8 24
t-2 13zM962 99q-17 35 -26 57.5t-9 40.5q0 43 4 80t24 66l41 66q7 9 23 21t34.5 23t36.5 19t29 8q10 -3 16.5 -4t10.5 -1q5 0 8 1.5t5 3.5h30q23 0 39 -5t36 -21l39 -38l22 -11q12 -8 17 -18.5t7 -22.5t4.5 -23.5t10.5 -20.5q6 -9 11 -13l9 -7.5t7 -9t5 -16.5q1 -10 2 -33
t1 -41q0 -5 -3 -14.5l-6.5 -20t-6.5 -18.5t-4 -8q-2 -7 -7.5 -18.5l-11.5 -24t-12.5 -23.5t-9.5 -15q-14 -6 -22.5 -13.5t-14.5 -14.5l-11.5 -13t-15.5 -9q-16 -10 -35.5 -12.5t-37.5 -9.5h-30q-42 0 -69.5 7.5t-49 22t-42 35.5zM977 240q0 -13 6.5 -34.5t17 -44t23 -42
t24.5 -28.5q14 -10 34.5 -18t43 -14t44 -9.5t36.5 -3.5q8 0 12 6.5t12 8.5q9 4 14.5 5.5t9.5 4t8 6t9 11.5q6 9 13 15l14 11.5t12.5 12.5t7.5 18q1 4 2 14t2 11q4 15 8 24t4 27q0 20 -3.5 35.5t-20.5 28.5q-2 8 -2.5 11.5t-0.5 5.5q0 20 -9.5 30l-23.5 26q-14 20 -25 28.5
t-22.5 12l-23.5 7t-28 13.5h-57q-1 0 -16 -6.5t-24 -12.5q-17 -9 -35 -28t-32.5 -42t-24 -47t-9.5 -43zM165 679q-17 35 -26 57.5t-9 40.5q0 43 4 80t24 66l41 66q7 9 23 21t34.5 23t36.5 19t29 8q10 -3 16.5 -4t10.5 -1q5 0 8 1.5t5 3.5h30q23 0 39 -5t36 -21l39 -38
l22 -11q12 -8 17 -18.5t7 -22.5t4.5 -23.5t10.5 -20.5q6 -9 11 -13l9 -7.5t7 -9t5 -16.5q1 -10 2 -33t1 -41q0 -5 -3 -14.5l-6.5 -20t-6.5 -18.5t-4 -8q-2 -7 -7.5 -18.5l-11.5 -24t-12.5 -23.5t-9.5 -15q-14 -6 -22.5 -13.5t-14.5 -14.5l-11.5 -13t-15.5 -9
q-16 -10 -35.5 -12.5t-37.5 -9.5h-30q-42 0 -69.5 7.5t-49 22t-42 35.5zM180 820q0 -13 6.5 -34.5t17 -44t23 -42t24.5 -28.5q14 -10 34.5 -18t43 -14t44 -9.5t36.5 -3.5q8 0 12 6.5t12 8.5q9 4 14.5 5.5t9.5 4t8 6t9 11.5q6 9 13 15l14 11.5t12.5 12.5t7.5 18q1 4 2 14
t2 11q4 15 8 24t4 27q0 20 -3.5 35.5t-20.5 28.5q-2 8 -2.5 11.5t-0.5 5.5q0 20 -9.5 30l-23.5 26q-14 20 -25 28.5t-22.5 12l-23.5 7t-28 13.5h-57q-1 0 -16 -6.5t-24 -12.5q-17 -9 -35 -28t-32.5 -42t-24 -47t-9.5 -43z" />
    <glyph glyph-name="ampersand" unicode="&#x26;" horiz-adv-x="1536" 
d="M87 389q0 32 8.5 70.5t24.5 64.5q17 25 39 50.5t47 49t51 44.5t52 36q9 2 14 4t9.5 4.5t10 6t16.5 8.5q13 5 33 9t38.5 11t31.5 19t13 33q0 2 -13 15.5l-29.5 30.5l-31.5 32.5t-18 20.5q-6 10 -23 31.5l-34.5 45t-31 44t-13.5 26.5l5 22q2 5 3.5 23t3.5 29q2 27 9.5 47
t20 37t29.5 33l38 37q16 16 38.5 24.5t47.5 13t50.5 5.5t46.5 1q78 0 137.5 -33t97.5 -101q0 -2 3 -6.5t7 -9.5t7.5 -10t3.5 -7q0 -55 -11.5 -87.5t-31.5 -55.5t-46 -43.5t-54 -51.5q0 -9 13.5 -32.5t31 -48t34.5 -45t24 -23.5q5 -3 14 -6t18.5 -7.5t18 -10t13.5 -12.5
q14 -20 26 -46t27 -49t35.5 -38.5t50.5 -15.5q22 0 34 17.5t18 41.5t9 49t8 41q4 18 13.5 35t9.5 37q0 18 -17 38t-37.5 39.5t-37.5 37.5t-17 31v20q32 9 69 16t69 7h23t29 -1t28.5 -2t21.5 -4q2 0 7 -3.5l11 -8l11 -8.5t7 -4q2 -1 5 -1q3 -1 9 -1q11 0 21.5 1.5t21.5 3.5
q8 5 19.5 8t19.5 3l27 -6q10 -7 21 -11t19 -8.5t13.5 -12t5.5 -21.5q0 -16 -6.5 -20t-17.5 -13q-6 -2 -18 -7l-25.5 -11l-25.5 -11t-18 -7q-4 1 -10.5 1h-15.5q-36 0 -60.5 -23.5t-42 -57t-30.5 -69t-26 -59.5q-9 -17 -21 -33.5t-23.5 -34.5t-19 -37t-7.5 -40
q0 -12 7.5 -24.5t17.5 -24.5t21 -23t18 -20l68.5 -83.5t80.5 -72.5q14 -10 45 -19.5t62 -21.5t54.5 -29t23.5 -42q0 -48 -32 -71.5t-75 -23.5q-17 0 -30 0.5t-25.5 2t-27.5 4.5t-35 8q-18 11 -29 28.5t-30 30.5q-8 6 -19 9.5l-21.5 7t-20 8.5t-13.5 13q-9 12 -17 33t-18 41
t-23.5 34.5t-33.5 14.5q-15 0 -38.5 -26t-49.5 -60.5l-51.5 -68.5t-46.5 -51q-36 -27 -67.5 -45.5t-64 -31t-67.5 -22t-77 -19.5l-55 -10q-30 0 -52.5 5t-43.5 13t-42.5 19t-49.5 22q-14 4 -21.5 4t-18.5 4q-14 10 -21 13.5t-12 4t-10.5 2t-15.5 8.5q-5 0 -5 5l-20 29
l-21.5 32.5t-18.5 32.5t-11 29q0 2 -2 12.5t-3 22.5q-5 13 -6 23t-3 15l-19 33q-3 4 -5.5 14.5t-4.5 24t-3 28.5t-1 28v29zM352 221q8 -17 15.5 -30t17.5 -24t23.5 -19.5t33.5 -16.5q6 -1 10.5 -2t9.5 -1q9 0 20 -9l28 -23t32 -8q38 0 71 9t67 22q2 2 9 3.5t15.5 3t16 2.5
t10.5 3l27 28q1 1 6.5 4l12.5 7t14 7.5l11 5.5l35 18.5t23 30.5l78 74q7 7 9.5 20.5t2.5 22.5q-18 13 -29 28t-20 30t-18 28.5t-23 24.5q-15 11 -27.5 27l-25 32.5l-24.5 31t-25 22.5q-31 11 -54 29.5l-49 39.5q-22 19 -34.5 36l-24 32t-27 27t-43.5 21q-12 0 -29 -11
t-37 -29l-41.5 -39l-41.5 -42l-36.5 -38t-26.5 -26q-13 -21 -20 -46t-12 -50.5t-9.5 -51t-12.5 -48.5q0 -11 3 -24t7 -26.5t8.5 -24.5t7.5 -17zM461 1107q0 -24 12 -51t31.5 -49.5t43.5 -37t48 -14.5q4 0 11.5 1t8.5 9v35.5t-1 13.5l-3.5 19.5t-1.5 14.5q0 11 2 15.5t6 9.5
q11 13 11 26q0 23 -3.5 48.5t-14 46.5t-29.5 34.5t-50 13.5q-19 0 -32.5 -16.5t-22 -38.5t-12.5 -45t-4 -35z" />
    <glyph glyph-name="quotesingle" unicode="'" horiz-adv-x="558" 
d="M81 756q2 12 9 23.5t16 22.5l18 21.5t14 19.5q25 33 47.5 69.5t49.5 68.5l31 33q4 4 11 25.5t14 46t12 47t5 28.5q0 36 -16 51t-40.5 20t-52.5 6t-52.5 10t-40.5 31t-16 70v9l17 23q11 10 11 21.5t5 24.5q4 15 18.5 27.5t33.5 22t39 14.5t37 5l24 -5q32 -11 63.5 -28.5
t59.5 -28.5q8 -13 21.5 -23t21.5 -17q14 -29 20 -57.5t6 -58.5q0 -11 6 -14t16 -11q7 -10 9 -24t2 -28v-26q0 -33 -9.5 -58.5t-18.5 -54.5q0 -2 -0.5 -9t-1.5 -15t-1.5 -15t-1.5 -9q-9 -32 -26 -57.5t-38 -48t-44 -43t-44 -42.5l-59 -58q-14 -13 -31.5 -20.5t-37.5 -11.5
t-40.5 -5t-39.5 -1q-7 0 -10 1.5t-7 8.5l-7 7z" />
    <glyph glyph-name="parenleft" unicode="(" horiz-adv-x="532" 
d="M340 -296q-1 21 -9.5 41t-20 39l-23 37.5t-17.5 36.5l-26 80q-10 22 -25.5 42.5t-22.5 38.5l-31 142q-21 35 -27 69t-6 74v25q-19 30 -19 67q0 -1 2 11.5l4.5 28l4.5 28.5t3 13q0 19 -2.5 42.5t-4.5 44.5q-4 23 -5.5 46.5t-1.5 50.5l19 40q3 44 8 84t11 79t13.5 78.5
t17.5 83.5q8 36 26.5 68t35.5 70q2 2 4 15.5t2 17.5l20 36l14 23t7.5 13t3.5 7.5t1 7.5q5 4 6 14.5t6 24.5q2 5 8.5 10l13.5 10t13 10t9 10q4 4 8.5 14.5t9 22.5l8.5 22.5t7 13.5q1 0 11 1.5t14 3.5q14 8 26 18t24.5 18.5t27 14.5t33.5 6q7 0 15.5 -1t16 -5t12.5 -10.5
t5 -16.5q0 -22 -18 -39.5t-41.5 -32.5t-46.5 -28t-34 -26q-23 -26 -41.5 -64t-34.5 -80t-28.5 -84t-23.5 -75q-7 -20 -14 -37.5l-13.5 -35t-11.5 -36t-8 -40.5v-31q0 -5 -0.5 -13t-1.5 -16t-2 -15t-1 -9t-5.5 -9t-10.5 -9q-5 -11 -6 -21.5t-1 -26.5v-31q0 -11 -2 -21.5
t-7 -16.5v-78l-5 -38q7 -24 10 -47.5t5 -47.5t5 -48t11 -49q2 -2 6.5 -12.5t4.5 -11.5q5 -38 4.5 -73t10.5 -73l56 -190q4 -11 10.5 -18.5l13 -15t11.5 -16.5t5 -23l58 -133q13 -7 21 -19.5t13 -27l10 -28.5t12 -25l26 -28q5 -5 10.5 -14t10 -21t7.5 -24.5t3 -23.5
q0 -4 -2 -19t-3 -19q-27 0 -55 19t-53 45t-47 53t-37 42z" />
    <glyph glyph-name="parenright" unicode=")" horiz-adv-x="526" 
d="M-31 -424q11 26 25.5 39.5t19.5 22.5q0 2 2 10.5t3 10.5l30 31q0 16 5.5 28t9.5 19l26 31l15.5 18.5l8 9.5l2.5 3q13 33 34.5 71l42.5 77.5t37 77.5t19 70v52l30 55q16 64 21 130t5 132v39.5t-1 35.5l-2 35.5t-4 39.5q-3 18 -8.5 35l-11 34t-9.5 34.5t-4 36.5l14 54
q0 9 -4 17t-9 16l-10 16.5t-7 19.5q0 3 -1 9l-2 12.5t-1.5 12.5t-0.5 8v26l-22 24v36q-4 21 -15 32.5t-16 28.5l-19 64q-2 3 -6 10t-8.5 16t-9.5 17.5l-8 13.5q-9 14 -12 28.5t-12 31.5q-17 28 -40.5 57.5t-44.5 61t-35.5 64t-14.5 66.5q0 9 19 9q22 0 37.5 -8t27.5 -20.5
t22 -27.5l21 -30q8 -10 18 -18l20.5 -16t20.5 -18t18 -23q10 -17 15 -40t17 -41l57 -109q0 -11 2.5 -18.5t6 -14t7.5 -13t8 -15.5q20 -51 37.5 -101l33.5 -99q2 -5 4.5 -18.5t2.5 -18.5v-50q4 -23 14.5 -44t12.5 -49q7 -55 10.5 -114t3.5 -113q0 -21 -6 -46.5t-6 -41.5
l-14 -152q-1 -2 -4.5 -10.5t-5.5 -12.5v-34l-31 -99v-42q-7 -38 -26.5 -69t-32.5 -66q-3 -11 -6.5 -26l-7 -30t-7.5 -28.5t-10 -20.5l-31 -31l-7 -24q-2 -9 -15.5 -28t-33 -42.5t-43.5 -48.5t-47.5 -45.5t-44 -33.5t-34.5 -13q-21 0 -28 6.5t-7 27.5z" />
    <glyph glyph-name="asterisk" unicode="*" horiz-adv-x="1010" 
d="M344 751q0 20 5 39l10.5 38l10.5 38t5 39h-8q-2 0 -13.5 -9l-27 -21t-31 -25.5l-25.5 -22.5q-3 0 -10.5 -8.5t-8.5 -10.5q-5 -2 -15.5 -7.5l-21.5 -11.5l-20.5 -11.5t-12.5 -7.5h-10q-9 0 -16 5.5t-12 14t-7.5 18.5t-2.5 19q0 23 6.5 33.5t17 15.5t24.5 7.5t28 10.5
q2 1 6.5 5.5l9.5 9.5t9 9.5t5 5.5q3 3 14.5 11.5l24.5 18l25 17.5l15 10q0 2 3.5 9t3.5 12v5v3q0 3 -2.5 6t-4.5 5l-31 -5t-25 -3.5t-24.5 -2t-28.5 -0.5q-12 0 -36 3.5t-48 11t-41.5 19t-17.5 27.5q0 13 17.5 25t40 21.5t45 15t31.5 5.5q35 0 70.5 -6t70.5 -6h45
q-9 21 -24 36.5t-33 29t-37 26t-34 26.5q-5 4 -16 14.5l-23 22.5l-22.5 22.5t-15.5 14.5q-6 9 -8 17.5t-2 17.5v19v34q7 16 17 18.5t21 2.5q20 0 38 -9t30 -20l185 -185q6 1 8 8.5t2 13.5v12q0 21 -5 39t-5 41q0 32 1.5 63t8.5 65q1 8 8.5 18.5t17.5 19.5t21.5 15t20.5 6
q3 -3 7 -5q6 -5 12 -6q12 -7 22.5 -12.5t18.5 -12t12.5 -15.5t4.5 -24q0 -26 -7.5 -51.5t-17 -51l-19.5 -51.5t-14 -53v-37q-2 -9 -7 -14.5l-10 -10.5t-9 -10.5t-4 -14.5q0 -5 2.5 -17t11.5 -12h5q2 4 5 16t6 13q9 17 26.5 42.5t40 53.5t48.5 56t52 50.5t51 36.5t45 14
q10 0 21.5 -2.5t21 -7.5t15.5 -13.5t6 -21.5v-4q-12 -35 -28.5 -66.5t-39.5 -57.5q-2 -4 -9.5 -11t-9.5 -12q-6 -4 -27.5 -20.5l-46 -35.5l-45.5 -35.5l-26 -20.5q-9 -9 -9 -10q0 -2 1 -5t1 -9q22 0 39.5 -3.5t39.5 -3.5q20 0 33 6t33 6q21 0 47.5 -1t50 -8.5t39 -23
t15.5 -43.5q0 -41 -29 -61.5t-68 -20.5q-20 0 -38.5 8.5t-38.5 12.5q-32 7 -52.5 9.5t-49.5 2.5q-4 0 -14 -2q-4 -1 -9 -1l-10 -19l107 -106q13 -14 21 -38.5t8 -42.5q0 -14 -4 -29t-11.5 -27t-20 -19.5t-28.5 -7.5q-27 0 -50.5 18t-44 45t-37 58l-30 58t-23.5 45t-17 18
q-2 0 -3.5 -1t-3.5 -1q-2 -1 -4 -3q-3 -3 -3 -5v-154q-1 -15 -4 -35t-10.5 -38t-20 -30.5t-32.5 -12.5q-30 0 -45.5 10.5t-22 28t-8 40t-4.5 45.5v11z" />
    <glyph glyph-name="plus" unicode="+" horiz-adv-x="1153" 
d="M121 699q11 11 33 16.5t50 5.5q20 0 27 -1t12 -4h151q34 0 58.5 3.5t33.5 12.5q17 17 17 71l-19 235q0 26 4 48t15 33q16 14 50 14q23 0 44 -6.5t32 -17.5l28 -61q1 0 2 -2t2.5 -9t3 -21.5t4.5 -39.5q-8 -3 -16 -11q-8 -11 -11.5 -21t-3.5 -24q0 -23 3.5 -50.5t8.5 -47.5
q2 -14 2.5 -18t0.5 -8q0 -16 -1.5 -32t-1.5 -27q0 -2 1 -2q0 -1 1 -1q6 -7 8 -7q34 0 71.5 8.5t68.5 8.5q16 0 28 -3t23 -7h154q4 0 12 -3t10 -4q9 -11 9 -30v-76l-18 -19q-33 -33 -89 -33q-45 0 -91 10.5t-84 12.5l-23 -9l-62 -5q-5 -9 -9 -26.5t-7 -39.5t-4.5 -46.5
t-1.5 -46.5q0 -23 2 -41t6 -34q3 -9 4 -17t1 -12t-2.5 -17.5t-2.5 -15.5l4 -48q0 -12 -2.5 -19t-6.5 -11q-14 -10 -45 -10q-26 0 -49 6t-31 11q-13 24 -18 53t-7 60.5t-4.5 64t-9.5 63.5l20 77q0 5 -1 10.5t-6 10.5q-10 9 -20.5 14t-24.5 5q-17 0 -33.5 -4t-36.5 -4h-20
t-10 1q-4 7 -24 7l-24 -2q-16 -4 -32.5 -5t-33.5 -1t-33 1t-33 5q-16 0 -26.5 3.5t-21.5 17.5q-7 12 -9.5 26.5t-2.5 34.5q2 31 4.5 39.5t2.5 10.5z" />
    <glyph glyph-name="comma" unicode="," horiz-adv-x="541" 
d="M94 -472q0 16 16 44t36.5 58t41 55.5l29.5 37.5l21 12q12 13 20 29l15.5 32t16 31.5t19.5 28.5q5 8 6 14.5t1 11.5v25q0 38 -17 57t-43 27.5t-56 12.5t-56 11.5t-43 24.5t-17 52q0 19 8 46.5t23 53t36 44t47 18.5q8 0 22 -1l28 -2l33 -2q6 0 16 -5.5t20.5 -13l19 -14
t11.5 -7.5q23 -15 35 -21.5t19 -12.5t12 -14.5t14 -27.5l9 -12q14 -26 30 -47t16 -48v-26q0 -13 -3 -26q-2 -16 -3.5 -29.5t-1.5 -29.5v-26q-16 -26 -20.5 -53t-10.5 -54q-6 -24 -21 -42.5t-32 -35t-32 -33.5t-21 -38l-121 -123q-5 -5 -17.5 -7.5t-18.5 -2.5h-25
q-10 0 -21 0.5t-20 3t-15 8t-6 16.5z" />
    <glyph glyph-name="hyphen" unicode="-" horiz-adv-x="951" 
d="M625 372l-12 2l-79 -14q-23 0 -43.5 7t-43.5 7q-19 0 -35 -6q-19 -8 -41 -8q-39 0 -77 8.5t-77 8.5q-38 21 -53.5 40t-15.5 45q0 25 8 47.5t23 39t36.5 26.5t48.5 10l53 -5h25h12.5t14.5 1q12 2 25.5 3t24.5 1h33q12 0 23 -0.5t22 -4.5q9 -2 18 -3t17 -1h69q9 0 17.5 1
t17.5 3q13 6 21 8t18 2q18 0 39.5 -2.5t40.5 -9.5t32 -19.5t13 -32.5q0 -30 -7 -60.5t-23 -55t-41.5 -40t-61.5 -15.5h-4q-2 0 -7.5 3l-11.5 6l-11.5 5.5t-7.5 2.5z" />
    <glyph glyph-name="hyphen" unicode="&#xad;" horiz-adv-x="951" 
d="M625 372l-12 2l-79 -14q-23 0 -43.5 7t-43.5 7q-19 0 -35 -6q-19 -8 -41 -8q-39 0 -77 8.5t-77 8.5q-38 21 -53.5 40t-15.5 45q0 25 8 47.5t23 39t36.5 26.5t48.5 10l53 -5h25h12.5t14.5 1q12 2 25.5 3t24.5 1h33q12 0 23 -0.5t22 -4.5q9 -2 18 -3t17 -1h69q9 0 17.5 1
t17.5 3q13 6 21 8t18 2q18 0 39.5 -2.5t40.5 -9.5t32 -19.5t13 -32.5q0 -30 -7 -60.5t-23 -55t-41.5 -40t-61.5 -15.5h-4q-2 0 -7.5 3l-11.5 6l-11.5 5.5t-7.5 2.5z" />
    <glyph glyph-name="period" unicode="." horiz-adv-x="441" 
d="M99 142q0 60 26 91.5t89 31.5q21 0 37 -7l33 -14q22 -11 33.5 -21t17 -22.5t6.5 -28.5t1 -39v-59q-2 -8 -11.5 -20.5t-22 -24.5t-25.5 -20.5t-22 -8.5q-35 7 -64.5 16t-51 24t-34 39.5t-12.5 62.5z" />
    <glyph glyph-name="slash" unicode="/" horiz-adv-x="696" 
d="M23 7q3 17 9 29t13.5 22.5l15.5 21t16 24.5l15 27q4 16 11 25t13 22l21 47q0 2 4.5 5t10 6l10.5 5.5t6 4.5l9 43q3 12 10 20.5t15 16.5l15.5 15.5t12.5 16.5q4 4 11 14t13.5 20.5t11.5 20t6 13.5q1 3 11 23.5t23.5 44t28 42.5t24.5 19q29 33 49 77l37 81l61 86l30.5 68
t19 37.5t12 16.5t7.5 6l21 35q5 15 11 24.5t13 17.5l14.5 16.5t16.5 22.5q31 43 54 89t48 91q9 18 21.5 33t26.5 35q3 4 10.5 17.5l16.5 29.5t17 33t13 29q10 23 22.5 40.5t41.5 17.5q13 0 28 -3q13 -2 29 -10.5t23 -22.5l-10 -52q-2 -2 -9 -10.5t-9 -10.5
q-10 -18 -12.5 -38.5t-13.5 -40.5q-6 -13 -16.5 -17.5t-24.5 -13.5q-4 -7 -6 -13.5t-4 -24.5q-5 -12 -15.5 -24t-22.5 -23.5l-23.5 -22t-20.5 -19.5q-21 -21 -21 -31v-1l-10 -30q-11 -26 -26 -48t-31 -35q-2 -9 -2 -16t-1 -12q-4 -16 -8.5 -25.5t-9 -15t-9 -9t-8.5 -7.5
q-3 -5 -9 -13.5t-11.5 -18.5t-9.5 -20t-5 -17q-5 -26 -15 -42.5t-19.5 -26.5t-17.5 -16t-10 -10q0 -4 -6 -10.5t-8 -8.5q-6 -20 -14 -34.5t-18.5 -26t-23 -22.5t-25.5 -24q-9 -9 -13.5 -20t-9.5 -20q-4 -32 -6.5 -44.5t-6.5 -19.5q-19 -13 -27 -29t-10 -18q-1 -3 -7 -7
t-13 -7.5l-13 -6.5t-8 -3q-7 -7 -13 -24t-12 -36.5t-12 -36.5t-13 -24q-2 -3 -7 -6t-10 -6.5t-8.5 -6.5t-2.5 -5q2 -7 2 -11v-8q0 -6 -2 -9q-5 -23 -19.5 -34.5t-22.5 -14.5q-9 -20 -11.5 -31t-14.5 -15q-1 -4 -1.5 -13t-5.5 -20q-2 -15 -5.5 -25.5t-9 -19t-14.5 -15.5
t-22 -14q-7 -4 -10.5 -10.5t-5 -14l-3 -15.5t-4.5 -16q-8 -11 -13.5 -14.5t-10 -6t-8.5 -7.5t-8 -19l-59 -6q-6 2 -12.5 13t-11.5 24t-8 24t-2 13z" />
    <glyph glyph-name="zero" unicode="0" horiz-adv-x="1004" 
d="M168 180q-29 59 -43.5 96t-14.5 68q0 72 7 132.5t39 109.5l69 111q11 14 37.5 34.5t57.5 39t61.5 31.5t48.5 13q17 -5 27.5 -7t17.5 -2q9 0 13.5 3t8.5 6h50q37 0 65 -8.5t60 -34.5l64 -63l38 -19q20 -13 27.5 -31t11.5 -37.5l8 -39t17 -34.5q11 -15 19 -21.5t14.5 -12.5
t11.5 -15t9 -28q0 -8 1 -22.5t2 -32t1.5 -35t0.5 -32.5q0 -8 -4.5 -24.5t-10.5 -33.5t-11.5 -30.5t-6.5 -14.5q-3 -11 -12.5 -31l-20 -40.5l-20.5 -38.5t-16 -25q-24 -11 -37.5 -23t-23.5 -23.5l-19.5 -21.5t-25.5 -15q-14 -8 -29 -12.5t-31 -8l-32 -7t-31 -9.5h-50
q-69 0 -115 13t-82.5 37.5t-70.5 59.5zM193 415q0 -22 11 -58t28 -73.5t38.5 -70t41.5 -47.5q23 -16 57.5 -29.5t71.5 -23.5t72.5 -15.5t61.5 -5.5q7 0 11.5 3t8.5 7t8.5 8t11.5 6q14 6 23.5 9.5t16.5 7t13.5 10t15.5 18.5q9 15 21 25l23 19.5t20.5 21t13.5 29.5q1 3 2 10
t1.5 13.5t1.5 12t2 6.5q3 13 6.5 22.5t6.5 18.5t5 19.5t2 25.5q0 32 -6 58.5t-35 47.5q-4 13 -4.5 19t-0.5 10q0 16 -4 27.5t-11.5 21.5t-17.5 20t-21 24q-23 33 -42 47t-37.5 20.5t-39 12t-47.5 22.5h-95q-1 0 -8.5 -3t-18 -8l-21.5 -10.5t-18 -10.5q-29 -15 -58.5 -47
t-54.5 -70.5t-40.5 -78.5t-15.5 -71z" />
    <glyph glyph-name="one" unicode="1" horiz-adv-x="753" 
d="M102 36q0 20 11 32t28.5 18t39 9l41.5 6t36 8.5t24 16.5q3 7 7.5 19t8.5 24.5t7 24.5t3 19l-26 131q0 7 3.5 21.5l7 30.5t7 29t3.5 16l-21 184q0 10 3.5 18.5t8.5 19.5q-22 23 -44 38t-46 26q-15 5 -35 8.5t-38 9.5t-30.5 17.5t-12.5 31.5q0 12 7.5 19t18 10.5t21.5 4.5
t19 1l106 -7q13 0 20 1t23 6q22 -3 42 -5t41 -2q17 0 35.5 1t38.5 6q8 7 25 12t36.5 8t39 4.5t31.5 1.5q8 0 20 -1t23.5 -4.5t19.5 -10.5t8 -19q0 -25 -16.5 -40t-39.5 -24t-47.5 -14t-40.5 -10q-7 -3 -13.5 -11t-12 -18t-10.5 -20.5l-9 -18.5l-14 -188l18 -142l-18 -26
q0 -2 3.5 -11.5t5.5 -11.5v-1q0 -12 -4.5 -24t-4.5 -26q0 -24 9.5 -41.5t13.5 -40.5q3 0 11 -1.5t18 -3l20 -3t15 -2.5l26 -14.5t39 -23t35.5 -26.5t15.5 -26v-2q-2 -11 -9.5 -21t-18.5 -20l-142 -6q-1 2 -7.5 4t-7.5 2q-5 1 -12 1h-16h-45q-48 0 -98.5 -1.5t-95.5 -8.5
l-19 -10q-31 0 -54.5 14t-35.5 32z" />
    <glyph glyph-name="two" unicode="2" horiz-adv-x="958" 
d="M91 12q1 5 7.5 20.5l11.5 26.5q4 6 15.5 13t25 14l26.5 13.5t19 11.5q17 13 35.5 23.5l37.5 21.5t37.5 23t34.5 27q31 27 65 66t62 83.5t46 91.5t18 91q0 21 -10 41t-26.5 35.5t-38 25.5t-45.5 10l-38 -13h-38q-9 0 -19 -1.5t-19 -12.5q-15 -11 -27 -29.5t-24.5 -35.5
t-27.5 -29.5t-37 -12.5q-11 0 -22 1.5t-18 10.5v29q0 27 4.5 40t12.5 21t19 15.5t23 25.5l14 17q23 30 48.5 57t65.5 39l76 10l49 10q24 0 56.5 -4t66 -13t63.5 -24t49 -37q7 -9 12 -20t9 -12l31 -51v-115q0 -19 -13.5 -34.5t-24.5 -29.5q-1 -1 -2 -4t-4 -11l-8 -22t-14 -36
q-1 -2 -2 -3q-2 -2 -3 -2q-11 -7 -16 -15t-8.5 -16.5t-7.5 -17t-13 -15.5q-11 -9 -21 -13.5t-20.5 -7t-21 -4.5t-20.5 -8q-1 0 -7.5 -5.5t-14 -12.5l-14.5 -13t-9 -7q-1 0 -9 -5t-17 -12l-17 -13t-9 -7q-5 -4 -14 -13t-17.5 -19t-14.5 -20t-6 -15t6 -5h32q26 0 48 -2.5
t42 -11.5h51q53 0 107 8t102 30q9 5 10 12t5 14q14 17 35 30t42 24l15 -51q0 -17 -7.5 -34.5t-18.5 -37.5q-3 -7 -6 -25t-9 -37t-16 -34t-26 -15l-17 -2q-39 -5 -76.5 -11t-75.5 -6q-12 0 -23.5 4t-22.5 9t-22 9t-22 4q-21 0 -46.5 -3t-42.5 -7q-4 0 -12.5 -5.5t-13.5 -10.5
l-91 26q-12 0 -23.5 -7t-25.5 -9q-19 -2 -35.5 -3.5l-34 -3t-36 -2.5t-41.5 -1q-17 0 -35 5.5t-18 22.5v3z" />
    <glyph glyph-name="three" unicode="3" horiz-adv-x="761" 
d="M47 -337q0 19 2 30.5t8 18t17.5 10t30.5 8.5l26 10.5t25 6.5q15 0 29 -7.5t27.5 -16.5t28.5 -16.5t32 -7.5q24 0 46.5 8.5t42 23t35.5 33.5t27 39q2 4 3.5 16t1.5 17q4 4 9.5 6.5t10.5 5.5t9 7.5t4 13.5v100q0 6 -4.5 15t-10 18t-11 15.5t-7.5 8.5q-16 22 -33.5 38.5
t-37 31t-40 28l-41.5 28.5q-1 2 -4.5 6.5t-8 9.5t-8.5 8.5t-7 3.5q-11 0 -23 -4.5t-24 -9.5t-24 -9.5t-22 -4.5q-12 0 -23.5 14t-11.5 26q0 21 17 35.5t39.5 25t45.5 17.5t36 12q1 1 5 5.5l9 10t10 10t8 5.5q10 9 21.5 16l22 13.5t20.5 14.5t17 20l12 17q27 44 50 90t23 96
q0 2 -6 9t-15 16t-18 19.5t-15 19.5q-9 15 -27.5 19.5t-34.5 4.5q-37 -12 -62 -19t-58 -7l-46 2q-16 1 -21 15.5t-5 25.5q0 23 5 28l26 14q21 11 33.5 27t30.5 31q18 12 39.5 21t44.5 15.5t46.5 9.5t45.5 3q21 0 37.5 -8.5l37.5 -19.5q35 -13 57 -25.5t35.5 -29.5t22 -40
t16.5 -57q2 -11 6.5 -21.5t4.5 -21.5q0 -22 -7.5 -49.5t-19.5 -55.5t-27.5 -53t-30.5 -43q-7 -10 -16 -15t-18 -8.5l-18.5 -7.5t-16.5 -12q-16 -16 -20.5 -31t-16.5 -28q-20 -7 -20 -28q0 -4 0.5 -4.5t0.5 -2.5q6 -13 24.5 -29l40 -33l41.5 -32.5t29 -26.5q3 -29 12.5 -48.5
l19 -37.5t17 -38.5t7.5 -53.5q0 -11 -2 -32t-5.5 -44t-8 -43t-9.5 -28l-26 -33q-6 -7 -10.5 -17t-8.5 -20t-9 -20t-13 -17q-26 -28 -72 -61t-99 -61t-106 -46.5t-92 -18.5q-17 0 -28.5 13l-23.5 27q-14 8 -24.5 16t-18 18t-11.5 23t-4 33z" />
    <glyph glyph-name="four" unicode="4" horiz-adv-x="999" 
d="M438 -310l19 54l-7 62q0 21 4.5 38.5l9.5 37.5q5 21 8.5 41t3.5 41q0 9 -10.5 19.5t-15.5 14.5l-114 5q-14 0 -33 -1t-40 -5q-23 -5 -42 -8t-39 -3l-38 9q-2 0 -7.5 -2.5t-16.5 -6.5q-9 0 -13.5 3t-8.5 6.5t-10 6.5t-18 3q-14 0 -19 -2q-7 16 -9 27t-2 27q0 21 2 32t9 25
q45 63 85 126.5l79 129.5l22 38q5 7 11 9.5l12 5t12 5.5t12 11q2 5 3.5 14.5t1.5 13.5q2 2 8 7.5l12.5 12t12 13t5.5 9.5l14 36l19 17l8 15.5t13.5 24l14.5 24t11 16.5q0 2 1.5 10.5t3.5 8.5l54 55q0 5 1.5 8.5t3.5 7.5q0 1 1.5 5.5t3 10t3.5 10t2 5.5l32 33q13 16 21 29
t17 22t22 13.5t36 4.5q17 0 27 -24t15.5 -55t7 -61t1.5 -43l-2 -47q-13 -16 -15 -28t-2 -29t5 -26t5 -24l-9 -71v-18l9 -31l-14 -180q0 -14 3 -28t23 -17q17 -2 33.5 -2.5t33.5 -0.5t35 0.5t36 2.5q16 14 31.5 16t36.5 2q10 0 29.5 -6.5t39 -17t34.5 -24t15 -27.5
q0 -25 -5.5 -49t-18 -42.5t-32.5 -30t-48 -11.5q-11 0 -21 2.5t-20.5 5.5t-23.5 5.5t-29 2.5q-11 -2 -23 -3t-25 -1q-19 0 -37.5 -2t-33.5 -9.5t-24 -21.5t-9 -38q-2 -4 -2 -11v-15v-81v-16.5t2 -12.5q-7 -13 -7 -30q0 -13 6.5 -18.5t10.5 -21.5q6 -36 6 -69q0 -37 -6 -67
q0 -9 -9.5 -21t-22 -23t-25 -19t-17.5 -8q-9 0 -18 9.5t-20 11.5q-33 7 -47.5 14.5t-20 19.5t-7.5 29.5t-10 46.5zM231 190q0 -12 9 -19t22 -10t28.5 -3.5t29.5 -0.5q12 0 42.5 3t63 9.5t57 16t24.5 23.5q0 12 -1.5 32t-3.5 39.5l-3.5 34.5t-1.5 17l-9 17q-1 8 -1 18.5v23.5
q0 18 -3 37.5t-10 35t-19 26t-31 10.5q-17 0 -34 -14.5t-32 -35t-27 -41.5t-21 -34l-66 -133q-9 -18 -11 -27t-2 -25z" />
    <glyph glyph-name="five" unicode="5" horiz-adv-x="744" 
d="M97 -375q0 26 16 54t43 39q42 38 77.5 75.5t56.5 76.5q8 14 8 37q0 9 2 17.5t3 14.5l19 51q0 9 1 12t1 8t2.5 8.5t6 7.5t6 10.5t2.5 18.5l-5 42l11 54q0 7 -9 23t-22 34l-26.5 35.5l-22.5 28.5q-2 1 -3 3.5t-4 4.5l-2 4q-5 7 -20 18.5l-31 24l-29.5 24t-15.5 19.5l-6 31
l-14 24.5t-10 20t-6.5 21t-2.5 28.5q0 13 0.5 23.5t2.5 20t5.5 21t9.5 26.5q-2 5 -3.5 12t-1.5 11q0 23 5 39.5t12.5 30.5t17 27t18.5 29v26l31 33l27.5 33.5t25 21.5t31 11t44.5 3q22 0 45.5 -4t47.5 -9.5t47.5 -9.5t44.5 -4q25 0 46.5 12.5t39.5 28l32.5 28t25.5 12.5
q4 0 6 -4t3 -10t1 -12v-10v-2l-11 -47l-9 -33t-7 -17q0 -5 -4.5 -11t-6.5 -10l-19 -19q-5 -10 -7.5 -24t-7 -27t-13 -22.5t-24.5 -9.5q-38 0 -71.5 6.5t-65.5 15t-64.5 15t-66.5 6.5h-46q-16 -5 -24.5 -24t-8.5 -36q0 -7 23 -33t53 -57l36 -36q17 -20 33 -41.5t24 -35.5
q9 -22 26 -41t33 -42l16 -39q19 -16 22.5 -21.5t3.5 -10.5q0 -17 2 -31t13 -19v-43l-8 -97l8 -26q0 -8 -1 -20t-3 -25t-4.5 -25.5t-5.5 -20.5l-22 -25q-5 -8 -7 -19.5t-3.5 -24t-4 -25t-6.5 -22.5q-10 -17 -29 -46t-44 -62l-53.5 -67.5t-57 -62t-55 -45t-48.5 -17.5
q-11 0 -24.5 4.5t-24.5 12.5t-18.5 20t-7.5 26z" />
    <glyph glyph-name="six" unicode="6" horiz-adv-x="862" 
d="M100 337q0 39 10 79.5t16 76.5q5 5 7 17q10 18 17 38.5l14 41.5t16 43t24 43q12 21 25.5 36.5t24.5 26.5q16 13 27.5 25.5t21 26t19 28.5t22.5 32l47 42l12 27q1 1 11 8t24 15.5l30 18t29 15.5q11 5 15.5 8t6.5 5q2 0 7 1.5t11 3.5l11.5 4t8.5 4q10 10 17 19t13.5 16.5
t14 15t19.5 15.5l46 19.5t46 22.5q12 10 20 19t17 15.5t19.5 10t26.5 3.5q12 0 29 -1t32 -5.5t25.5 -14.5t10.5 -27q0 -14 -4.5 -22t-12 -13.5t-17.5 -9.5t-20 -9q-11 -13 -19 -29.5t-24 -24.5q-4 -1 -15 -5t-20 -12l-29 -14q-17 -11 -26.5 -24.5t-25.5 -27.5
q-12 -11 -29.5 -23t-33.5 -25.5t-27.5 -30t-11.5 -35.5q-13 -9 -28 -14.5l-30 -11.5t-29 -15t-25 -26q0 -2 -2 -13.5t-4 -12.5l-10 -12q0 -3 16.5 -7.5l38.5 -10l43 -10.5t30 -10l38 -22.5t31.5 -22.5t28.5 -26t30 -33q6 -5 15 -27t18 -47t15 -47t6 -28q-2 -26 -4.5 -37
t-2.5 -13q1 -12 2 -20t1 -15q0 -13 -1.5 -19t-1.5 -10q0 -21 -4.5 -39t-16.5 -39q-21 -32 -35 -59t-34 -57q-2 -2 -5.5 -3.5t-3.5 -3.5q-2 0 -12.5 -1.5t-15.5 -3.5l-7 -7l-11 -11t-11 -11.5t-7 -8.5q-5 0 -15 -0.5t-21.5 -1.5t-21.5 -2.5t-13 -4.5q-11 -2 -18.5 -7.5
l-15 -11t-15.5 -10t-20 -4.5q-22 0 -39.5 3.5t-34 9.5t-33 13.5l-35.5 15.5q-2 0 -10 2t-17.5 4t-17.5 4t-9 2q-12 2 -25.5 12.5t-26.5 24l-24.5 26.5t-18.5 20q-2 1 -6.5 16t-9.5 33.5l-10 35.5t-7 22q0 4 -2.5 13t-5.5 18.5t-6 17.5t-6 10q-2 11 -4 13t-2 11zM216 336
l6 -25q2 -5 6 -18.5t10.5 -32.5t15.5 -41.5t21 -43.5q11 -23 31 -42.5t44 -30.5q1 -2 4.5 -2h7.5h64q11 2 22 6.5t18 9.5q2 2 11 10t19 18l18.5 19t9.5 12q23 19 37 40t21.5 44.5t10 51t2.5 59.5q0 17 -3 29.5t-8 24.5t-11 24.5t-11 28.5v33q-10 25 -24 34.5t-34 17.5
q-8 3 -19.5 11.5l-24.5 19t-26.5 19t-26.5 11.5q-8 0 -23 -2t-31 -5.5t-29 -10t-16 -15.5l-66 -128l2 -16q0 -10 -0.5 -22.5l-1 -24t-2 -20.5t-3.5 -12q0 -2 -3.5 -7l-7 -10t-7 -9.5z" />
    <glyph glyph-name="seven" unicode="7" horiz-adv-x="948" 
d="M488 -467l-7 9l7 32q-5 11 -5 30q0 10 5 21l-7 31q13 23 24 47.5t18 49.5l17 57q5 23 18.5 45t17.5 45q4 34 14 60t19 61q4 11 5.5 17t1.5 14q0 5 -2 9t-2 13l4 23l2 6q2 7 3 8q3 2 8 7.5l10.5 11.5t9.5 11.5t5 7.5l9 31q10 31 20 66t30 62v26q0 25 4 48t9 46l10 48t8 55
q0 25 -10 41t-25.5 24.5t-35.5 11.5t-40 3h-74l-81.5 8t-83.5 4h-17l-12 8h-161q-13 0 -22 -21.5t-21 -47.5t-30 -47.5t-48 -21.5q-5 0 -5 9l2 24q0 19 3 34.5t6.5 28.5t7 24.5t3.5 23.5q3 14 4 44t6.5 60.5t18.5 53.5t39 23q12 -2 17 -5t7 -7.5t4 -9.5t8 -11
q1 -1 18.5 -5.5t39 -9t40 -8t23.5 -3.5t9.5 1t9.5 3t9.5 2h11.5q21 0 41.5 -4.5t41.5 -6.5q37 -1 71 -5.5t68 -4.5q19 0 41 7q18 3 38 3q11 0 16 -2t19 -13h109q3 0 8.5 -3.5t11 -8.5t9.5 -10t4 -8q0 -18 -3.5 -34.5t-8 -32t-8 -30.5t-3.5 -29l9 -67q-5 -23 -9.5 -51.5
t-10.5 -57t-16.5 -54.5t-27.5 -45v-83q-12 -14 -19 -31t-21 -33q-4 -7 -10.5 -16t-6.5 -14l12 -34q-1 -2 -4.5 -7.5t-8 -11.5l-9 -11.5t-6.5 -7.5q-8 -13 -9 -27.5t-2.5 -28t-6.5 -25.5t-20 -20v-17q0 -15 -2 -34t-5 -37.5l-6 -36t-6 -30.5q0 -7 -5 -12q-11 -20 -15.5 -38.5
t-6 -37.5t-1.5 -39t-3 -41q-4 -18 -16 -32t-17 -30l-5 -18q-8 -20 -17.5 -28t-41.5 -8q-15 0 -19 14z" />
    <glyph glyph-name="eight" unicode="8" horiz-adv-x="804" 
d="M481 644q14 -21 28.5 -36t29.5 -28.5l30.5 -27t32.5 -31.5l19 -31l24 -21q8 -12 16.5 -38.5t15.5 -56.5t11.5 -57t4.5 -40q0 -16 -1 -37t-4.5 -43t-10 -41.5t-18.5 -32.5q-29 -33 -57 -57.5t-59 -41t-67.5 -25t-83.5 -8.5q-70 0 -132.5 27.5t-107.5 83.5
q-9 30 -23.5 60.5t-14.5 62.5q0 22 7 44.5t17 43.5t22 41l23 39q9 18 13 35.5t20 33.5q10 12 24.5 25t27.5 27t22 30.5t9 35.5q0 15 -11 32t-27 33t-34.5 30.5l-33.5 25.5q-5 4 -17.5 31.5l-26.5 59.5t-24.5 61t-10.5 38q0 64 14.5 122t46 102t81 70t119.5 26q48 0 92 -8
t90 -28q21 -13 40 -37.5t35 -54t27 -60.5t14 -58q0 -27 -12.5 -64t-31 -73.5t-40 -69t-39.5 -50.5q-4 -6 -15.5 -13.5l-23.5 -15.5t-21 -17t-9 -18zM299 128q21 -23 51.5 -41t64.5 -18q24 0 45 12.5t37 31.5t25 42.5t9 45.5q0 14 -6 26.5t-6 28.5q0 2 1 7.5t6 15.5
q4 6 7 14.5t5 12.5q0 19 -15.5 50.5t-38 61t-48 51t-44.5 21.5q-40 0 -62.5 -22t-34.5 -54t-17 -68t-10 -64q-2 -4 -3.5 -15.5t-1.5 -15.5t5 -16.5t7 -16.5q1 -5 5 -17t8 -26.5l7.5 -27.5t3.5 -19zM268 958q0 -25 10 -65t28.5 -78.5t44 -66t55.5 -27.5q5 0 16 1t22 6
q0 2 0.5 8.5t1.5 13l2 12.5t1 8t3 6.5l7 10t8 10t7 6.5q1 4 8 18.5t9 22.5q2 4 7.5 14l11 20.5l10 18.5t4.5 10q0 17 -6.5 35t-10.5 35q-4 21 -7 40.5t-8 37.5t-13.5 34t-23.5 30q-7 4 -16 11t-18 13l-16 10.5t-9 5.5h-23q-38 0 -59.5 -20t-31.5 -50.5t-12 -65.5t-2 -65z
" />
    <glyph glyph-name="nine" unicode="9" horiz-adv-x="892" 
d="M-25 -223l14 19q0 3 1 9.5t2 14t1.5 13.5t0.5 8q4 11 9 16t10 8t11 7t13 12q5 6 6.5 12t2.5 11.5t3.5 10.5t8.5 9q27 9 46.5 27t45.5 34l121 55q12 16 37.5 35.5l51.5 40.5t46 42.5t20 42.5q0 2 -23 8.5l-52.5 15.5t-57 19t-36.5 19q-45 35 -75.5 66t-49.5 66t-27.5 78.5
t-8.5 104.5q0 35 13.5 70t35 66.5t48.5 58.5t54 47q11 9 22 14.5t22.5 10.5t22 11t21.5 16q23 5 46 7t49 2q21 0 42.5 -2t43.5 -7q5 -1 9.5 -5t8.5 -8l59 -11q19 -6 39 -17.5t38 -26.5t32 -33.5t22 -39.5q0 -5 1.5 -18.5t3.5 -14.5l24 -25q11 -15 19 -37.5t12.5 -46
t6.5 -45.5t2 -37q0 -6 -3.5 -22t-7 -34t-7 -32.5t-3.5 -16.5l-12 -12v-33q0 -1 -4 -4.5t-8.5 -8t-8.5 -8t-5 -3.5v-28q0 -5 -4.5 -10t-10 -10t-10.5 -9t-7 -7q0 -2 -2 -14t-4 -14q-8 -11 -18.5 -19t-22.5 -15.5t-23.5 -15.5t-19.5 -19q-41 -57 -89.5 -102.5l-96.5 -91.5
q-1 -2 -9.5 -11.5t-12.5 -11.5q-2 0 -10.5 -3t-13.5 -7q-23 -9 -47 -24.5t-45 -32.5l-22 -22l-42 -9l-22 -24q-15 -11 -35.5 -24.5t-42.5 -25.5t-45 -20t-42 -8l-57 10zM278 448v-19q2 -3 8 -13.5t13 -21.5l14 -21t11 -13q14 -25 31.5 -35.5t38.5 -18.5l38 -19q7 -2 11 -8.5
t6 -14.5t5 -15t9 -10q21 9 36.5 20.5t28.5 26t25 32l26 37.5q2 19 7.5 38l11 38t10 38.5t4.5 39.5v18.5t-2 10.5q-2 7 -3 13.5t-1 17.5l6 40q-20 44 -32 79t-29 59.5t-45 37.5t-80 13h-32q-1 -12 -9 -23.5t-19.5 -22.5l-23 -21t-18.5 -18q-11 -13 -19.5 -29.5t-15.5 -34.5
t-12.5 -36l-10.5 -33q0 -26 3 -48.5t7 -45.5q2 -4 2 -10v-11v-17z" />
    <glyph glyph-name="colon" unicode=":" horiz-adv-x="534" 
d="M109 116q0 23 4 38.5t11.5 26.5t19.5 20t29 20q20 14 32 29t28 15q5 0 16 -2t22.5 -4.5t21.5 -5t13 -4.5q4 -2 13.5 -8.5t13.5 -6.5h37q8 -3 14.5 -15.5t10.5 -28.5t6 -31.5t2 -23.5q0 -20 -7.5 -45.5t-11.5 -46.5q-6 -8 -19 -15t-28.5 -12t-31.5 -8t-27 -3h-29
q-14 0 -31 2.5t-30 13.5l-7 7l-11 10.5t-11 11.5t-7 9q-5 4 -12 11l-14 14.5t-12 15.5t-5 16zM141 640l-1 10q0 23 7 52.5t21.5 56t35.5 45t48 18.5q15 0 34.5 -5.5t39.5 -13.5t37 -19t28 -21q3 -5 6.5 -15t6 -22.5t4.5 -24.5t2 -19q0 -23 -7.5 -39t-20.5 -27t-31.5 -19
t-39.5 -14q0 -1 -1 -1l-2 -1q-5 -2 -15 -5l-20.5 -6t-20.5 -5.5t-14 -2.5q-12 0 -28.5 8.5t-31.5 20.5t-26 25.5t-11 23.5z" />
    <glyph glyph-name="semicolon" unicode=";" horiz-adv-x="566" 
d="M66 -462q0 22 19.5 47t45.5 49.5l53.5 48.5t43.5 44q5 8 8 18l6 20t8.5 18t15.5 13q8 17 17.5 35t18 38.5t14.5 44t6 50.5q-5 10 -10.5 13.5t-12 5t-12.5 4t-10 10.5q-2 2 -5.5 9.5t-8.5 15.5t-11.5 14.5t-14.5 6.5q-9 0 -16 -3.5t-14 -7.5t-14 -7.5t-17 -3.5
q-43 0 -70.5 21t-27.5 67v14l14 19q11 25 24.5 49.5t31 43.5t41 30.5t53.5 11.5q61 0 108.5 -28.5t79.5 -73.5t48.5 -101t16.5 -110q0 -32 -6 -54.5t-17 -49.5l-27 -97q-10 -25 -25 -46t-32.5 -40.5l-36 -39t-34.5 -40.5q-2 0 -4.5 -8.5t-2.5 -10.5q-4 -10 -20.5 -18
t-37.5 -15.5t-42 -16t-34 -19.5q-10 -2 -19.5 -3t-19.5 -1q-11 0 -20 1t-18 3q-12 4 -22.5 10t-10.5 19zM176 728v35q2 10 17 21.5t33 21.5t35 16.5t24 6.5q39 0 62 -7t37 -23t21 -40.5t15 -59.5q0 -33 -16 -59.5t-40 -44.5t-51.5 -28t-49.5 -10q-25 0 -41.5 20.5t-26.5 48
t-14.5 56.5t-4.5 46z" />
    <glyph glyph-name="semicolon" unicode="&#x37e;" horiz-adv-x="566" 
d="M66 -462q0 22 19.5 47t45.5 49.5l53.5 48.5t43.5 44q5 8 8 18l6 20t8.5 18t15.5 13q8 17 17.5 35t18 38.5t14.5 44t6 50.5q-5 10 -10.5 13.5t-12 5t-12.5 4t-10 10.5q-2 2 -5.5 9.5t-8.5 15.5t-11.5 14.5t-14.5 6.5q-9 0 -16 -3.5t-14 -7.5t-14 -7.5t-17 -3.5
q-43 0 -70.5 21t-27.5 67v14l14 19q11 25 24.5 49.5t31 43.5t41 30.5t53.5 11.5q61 0 108.5 -28.5t79.5 -73.5t48.5 -101t16.5 -110q0 -32 -6 -54.5t-17 -49.5l-27 -97q-10 -25 -25 -46t-32.5 -40.5l-36 -39t-34.5 -40.5q-2 0 -4.5 -8.5t-2.5 -10.5q-4 -10 -20.5 -18
t-37.5 -15.5t-42 -16t-34 -19.5q-10 -2 -19.5 -3t-19.5 -1q-11 0 -20 1t-18 3q-12 4 -22.5 10t-10.5 19zM176 728v35q2 10 17 21.5t33 21.5t35 16.5t24 6.5q39 0 62 -7t37 -23t21 -40.5t15 -59.5q0 -33 -16 -59.5t-40 -44.5t-51.5 -28t-49.5 -10q-25 0 -41.5 20.5t-26.5 48
t-14.5 56.5t-4.5 46z" />
    <glyph glyph-name="less" unicode="&#x3c;" horiz-adv-x="1116" 
d="M508 362l-24 29l-37 23t-22.5 14t-11.5 6.5t-4 1.5q-11 0 -20.5 9t-17 21t-13 24t-8.5 17q-11 5 -18.5 8t-14.5 7t-13.5 11t-15.5 19l-64 66q-16 4 -37 14.5t-39.5 25.5t-31.5 33.5t-13 38.5q0 23 15.5 40t37.5 30.5t45 25t37 22.5q6 2 12 9.5t11.5 16t11.5 15.5t12 7
q12 13 21 20t16.5 12l14.5 10t17 15q4 5 6.5 11t2.5 10q0 10 15 22l64 21l66 66q16 0 25 3q5 2 9 4q7 4 9.5 11t13.5 11q20 16 33 25l20 14q8 5 11 8q14 2 28 16.5t26.5 32l24.5 33t23 18.5q17 6 25 13t13 14.5l10.5 15t17.5 15.5q15 10 31.5 17.5l33 14.5l33 14.5
t30.5 18.5q11 -9 23.5 -26t12.5 -38q0 -24 -9 -37.5t-23 -23l-30.5 -20t-30.5 -28.5q-10 0 -27 -10.5t-35.5 -24.5t-34.5 -27.5t-23 -18.5q-3 -2 -10.5 -8t-16 -13.5l-16 -14t-9.5 -9.5l-67 -45q-7 -7 -16 -18.5t-19.5 -22t-22 -18t-23.5 -7.5q-6 0 -7 2q-1 -3 -3 -8.5
t-4.5 -11.5t-5.5 -11t-6 -7t-7 -4q-6 -3 -9 -3q-11 -3 -18.5 -8t-13.5 -11l-11.5 -12t-13.5 -11q-25 -20 -42.5 -31l-33.5 -20.5t-33 -21t-41 -30.5q0 -17 11.5 -32t22.5 -15q43 -27 77 -55l72 -57q2 -2 10 -6.5t12 -6.5q3 0 15.5 -8.5l27.5 -19l28 -19.5t18 -11
q10 -20 16 -25t12 -5.5t13.5 -2t20.5 -14.5q4 -7 17 -22.5t28.5 -31t30.5 -27t24 -11.5q23 -17 47 -33t45 -34q10 -8 17 -15l13 -13.5t13 -12t19 -11.5q14 -9 33.5 -19.5t37.5 -24t30.5 -30.5t12.5 -39q0 -14 -8 -33t-22 -36.5t-33 -30t-40 -12.5q-17 0 -33 14t-33 26
q-9 6 -25 8t-32 11l-49 62l-24 10q-11 7 -20 19.5l-19.5 26t-23.5 26.5t-32 22q-10 4 -24 15t-27 23l-23.5 21.5t-12.5 9.5z" />
    <glyph glyph-name="equal" unicode="=" horiz-adv-x="931" 
d="M137 310q-5 2 -5 19v20q0 14 0.5 34t5 39.5t14.5 34.5t28 19h49q10 0 19 3l18 6t18.5 5.5t20.5 2.5l57 -12q16 0 23.5 2.5t17.5 2.5q17 0 35 -3t36 -7q14 -7 28 -9.5t28 -2.5q27 0 54 8.5t55 8.5l39 -5q8 0 14.5 2.5t12.5 6t12.5 6t14.5 2.5q23 0 44.5 -9.5t35.5 -30.5
v-26q0 -15 -1.5 -27.5l-3 -24.5t-3 -25.5t-1.5 -32.5q-7 -15 -18 -24t-24 -14.5t-26 -7t-25 -1.5l-104 7q-69 0 -138 -1.5t-139 -3.5q-29 -2 -59.5 -10t-61.5 -8q-11 0 -22.5 5t-21.5 12.5t-17.5 17.5t-9.5 21zM120 663v41q0 14 0.5 34t5 39t14.5 32.5t28 15.5h47
q10 1 19.5 4.5t19 7.5t19 7.5t21.5 3.5q16 0 27.5 -9t30.5 -9l39 7q17 0 33.5 -3t32.5 -7q17 -4 31.5 -6.5t27.5 -2.5l111 12l39 -5q8 0 14.5 3.5t12.5 8t12.5 8t14.5 3.5q22 0 43 -12.5t35 -32.5v-19l-7 -104v-26q-16 -20 -42.5 -27.5t-52.5 -7.5l-104 11q-70 0 -138.5 -2
t-136.5 -7q-29 -2 -61 -7t-62 -5q-8 0 -19.5 4.5t-23 12t-20 17t-11.5 20.5z" />
    <glyph glyph-name="greater" unicode="&#x3e;" horiz-adv-x="1114" 
d="M608 370h-34q-3 0 -13 -9.5t-24.5 -21.5t-30.5 -23t-29 -15q-14 -9 -25 -22t-21 -26.5l-19.5 -25.5t-21.5 -19l-22 -7l-50 -66q-14 -7 -31 -8.5t-28 -10.5l-31.5 -24t-32.5 -12q-22 0 -41 12t-32.5 29t-21 36t-7.5 33q0 22 12 38.5t30 29.5t37.5 23t34.5 20q12 6 19 12
t13 13l12.5 14.5t17.5 15.5q21 16 45 32.5l45 31.5q10 0 25.5 11.5t30.5 27t27 31t17 22.5q14 13 22 15t14 3t12 5.5t16 23.5q2 4 16 13.5l30 19.5l29 18t14 8q5 1 12 7t8 8l73 56t78 55q11 0 23 14t12 31q-24 20 -41 32t-33.5 22l-34.5 21t-44 29q-15 11 -24.5 24t-30.5 21
h-3.5t-5.5 1l-8 2q-8 9 -12 22.5t-16 13.5t-23.5 8.5t-21.5 19.5t-18.5 22t-14.5 16l-67 50q-3 0 -10.5 5.5t-15.5 12.5l-15.5 13.5t-10.5 8.5q-8 4 -24 17.5l-34 27.5t-35.5 25t-29.5 11q-13 19 -29 29l-30 19.5t-23.5 22.5t-9.5 38q0 21 13.5 38t26.5 26q13 -11 29 -18.5
t32.5 -14.5l33 -14.5t30.5 -17.5q11 -7 17 -15l12 -15.5t14.5 -14t23.5 -12.5q9 -3 21 -18.5l25.5 -33.5t27.5 -32.5t28 -16.5l4 -2l5 -3q24 -18 37.5 -29.5t20.5 -18.5t11 -10.5t9 -5.5q5 -1 10 -1q5 -1 10.5 -1h13.5q6 -5 14 -14t16 -19t17 -19t17 -15q31 -15 47.5 -25.5
t25 -18t11 -13t6.5 -11.5q9 -8 17 -12.5t16 -9.5t17 -11.5t21 -19.5q4 0 9.5 -7.5l12 -16.5t12 -17.5t9.5 -10.5q16 -11 39 -22t44.5 -24.5t36.5 -31t15 -40.5q0 -20 -12.5 -38.5t-30.5 -33.5t-38.5 -25.5t-35.5 -14.5q-8 -2 -17.5 -12.5t-19 -22.5l-17.5 -21.5t-12 -9.5
q-9 -12 -16 -19t-13.5 -11t-14.5 -7t-18 -8q-4 -5 -10 -16.5t-13.5 -23.5t-17 -21.5t-20.5 -9.5q-1 0 -7 -2q-3 -1 -5 -1q-17 -5 -30.5 -11.5t-26.5 -19.5z" />
    <glyph glyph-name="question" unicode="?" horiz-adv-x="740" 
d="M93 97q0 13 7.5 29.5t20 31t28 24.5t30.5 10q69 -5 94.5 -41t25.5 -96q0 -16 -9 -27t-22 -18t-27.5 -10t-26.5 -3q-27 0 -49 4.5t-38 16t-25 31t-9 48.5zM542 879v3l-20.5 59t-22 47t-31 39t-47.5 35q-6 5 -12.5 14t-7.5 14l-44 54q-14 0 -26 4t-23.5 9l-23.5 10.5
t-25 7.5q-23 27 -33 44.5t-10 45.5q0 15 5 32t20 26h25q26 0 43.5 -12t32.5 -28l29.5 -32.5t34.5 -25.5l47 -14q18 -9 33 -22.5t29 -29t26.5 -31t26.5 -28.5q2 -1 8.5 -4.5l10.5 -5.5q15 -9 30 -28t27 -41.5t20 -45t8 -37.5q0 -30 -9 -56.5l-18 -52.5l-13 -116
q-2 -11 -8.5 -19.5t-14 -16.5t-15 -15l-13.5 -13q-1 -2 -3 -4q-4 -4 -4 -8q-24 -39 -50 -58t-56 -28t-65 -11.5t-78 -8.5q-11 -3 -15.5 -7.5t-7 -10.5t-5 -13.5t-7.5 -16.5q0 -2 -7.5 -13.5t-11.5 -12.5q-9 -19 -12 -43t-9 -45.5t-18.5 -36t-40.5 -14.5l-24 6q-4 1 -7 7
t-3 10q-2 36 -3 71.5t-1 73.5q0 23 0.5 46t3.5 48q0 33 15.5 52t40 29t55 14t61 6.5t58 6t46.5 13.5q11 5 13 17t7 21q6 11 12 12.5t17 1.5q12 0 16 1q11 2 19 19t13.5 38t8.5 41t3 27z" />
    <glyph glyph-name="at" unicode="@" horiz-adv-x="1540" 
d="M821 417q1 3 4 9l6.5 13.5l6.5 14.5t5 10q7 10 7 29q-1 2 -1 5q-1 2 -1 4.5v4.5q0 4 -5 11.5t-12 7.5q-3 0 -4 -1l-3 -3q-2 0 -4.5 -1.5t-4.5 -1.5q-2 -2 -2.5 -3t-2.5 -2t-3 -2l-5 -5t-9 -8.5t-9.5 -9t-6.5 -5.5l-59 -38q-2 -3 -7 -8l-10.5 -10.5l-10.5 -10.5t-8 -7
q-23 -25 -58.5 -40.5t-67.5 -20.5h-30q-15 0 -29.5 0.5t-28.5 5.5q-2 0 -4.5 2t-4.5 5q-21 11 -35.5 32t-21.5 45q-4 14 -4.5 24.5t-0.5 24.5v22q0 14 4.5 28.5t10.5 28.5q14 34 30.5 66.5l33.5 63.5q7 8 12.5 17t10.5 16q0 1 2 7q1 2 3 5q4 4 11.5 13.5l15.5 19l15 18
t10 11.5q4 8 13.5 11.5t14.5 9.5l84 71l2 4q1 1 2 3l10 10.5l17 19l17 20t11 12.5q2 2 5.5 4.5t5.5 4.5l1 2h6q2 0 5 1q8 2 13.5 6.5t10.5 11.5q39 31 78 49t90 27q15 4 31.5 4.5t33.5 0.5h9q11 -2 17 -7t14 -7q6 -3 11 -3h24l2 1q9 7 14 14l11 16l27.5 24.5t33.5 11.5h12
q14 -14 20 -31.5t6 -35.5q0 -32 -11 -57t-25 -51q-3 -9 -4 -16.5t-3 -15.5q0 -7 -4 -11l-110 -226q-2 -5 -2 -7.5v-6.5v-7.5t-2 -8.5l-16 -35t-17 -36v-3q-2 -8 -4 -13l-3.5 -9t-2.5 -6q-2 -4 -5.5 -9t-3.5 -13q0 -9 2 -18.5t14 -9.5q11 0 20 6t18 13l112 64l6.5 4.5
t7.5 4.5l59.5 51.5t54 56t41.5 62t22 70.5q4 17 5.5 36.5t1.5 38.5q0 13 -3.5 29t-5.5 33l-41 100t-40 76h-2l-71 97q-32 12 -55 29.5t-51 32.5q-34 21 -61 35.5t-54 18.5q-15 -2 -22.5 -3.5t-12.5 -1.5h-17h-13t-13 -2l-37 17q-29 0 -60 -4.5t-52 -27.5q-62 -6 -105 -18.5
t-75.5 -34t-59.5 -53t-58 -76.5l-27 -28l-38 -57q-7 -7 -10 -18t-3 -20l-50 -124q-5 -11 -8.5 -26t-6 -30t-4 -29.5t-3.5 -25.5q-1 -5 -4.5 -14.5l-7.5 -21l-7.5 -22.5t-3.5 -18q5 -84 25.5 -151.5t47.5 -123.5q8 -11 11 -25t7.5 -29t13 -30t27.5 -27q11 -23 26 -48t36 -40
q13 -11 23.5 -22t20.5 -23.5l21.5 -26t28.5 -27.5q12 -2 27 -6.5t29 -9.5l26 -9.5t18 -5.5l62 -19l94 2q24 4 43.5 5.5t35.5 1.5q30 0 46.5 -3t24.5 -3q7 0 12 -2.5t21 -2.5q13 0 22 2.5t16.5 6.5t16.5 8t23 6q2 2 21 13.5t42 24l42 23t21 10.5q32 0 43.5 -8.5t11.5 -21.5
q0 -17 -14.5 -36.5t-24.5 -30.5q-14 -21 -24 -33t-18 -17.5t-14.5 -7t-13.5 -1.5q-13 0 -23.5 -3t-21.5 -8q-26 -11 -57.5 -20t-71.5 -9l3 2q-6 -2 -17 -2h-23h-136h-26.5t-18.5 2q-30 0 -60.5 4.5t-61.5 11.5t-61 14.5t-59 12.5q-2 0 -7.5 2.5t-6.5 4.5l-58.5 42t-62.5 38
l-35 6q-5 1 -22 15l-36.5 31t-35.5 33.5t-18 23.5l-80 140q-8 19 -21 58t-25 82t-21 81.5t-9 56.5q0 11 3.5 16.5t3.5 16.5l-7 59q0 22 5.5 56t12 70t13.5 68t10 52q1 6 8.5 20t12.5 19q10 12 15 24t8.5 24.5t7.5 24.5t12 24q5 9 11.5 13.5l12 8.5t9.5 10t4 17l119 121
l85 43q2 2 5.5 6.5t8.5 9.5l50 17l135 66l263 52h57l52 -25l26 4l71 -24l27 -10.5l40 -16t39.5 -17t26.5 -14.5q13 -13 23.5 -22.5t21 -17l22 -15t25.5 -15.5q9 -5 25.5 -25t33 -43.5t29.5 -45t15 -28.5q3 -13 3 -25t1 -22t5.5 -19t16.5 -16l16 -71.5l14.5 -70t10.5 -56
t4 -28.5q0 -23 -4.5 -35t-9.5 -31q-14 -22 -25 -36t-11 -25q-14 -18 -20.5 -32l-13 -27t-15.5 -25.5t-27 -27.5l-59.5 -47.5t-45 -32.5l-45 -28l-58.5 -34l-65 -55l-9 -7q-2 -2 -10 -9t-11 -8q-9 -8 -19 -10.5t-21 -7.5q-15 -11 -28 -24t-29 -21l-34 -10h-4l-65 10
q-2 1 -5 2l-4 2t-4 1q-4 5 -11 10t-9 9q-7 10 -9.5 19t-2.5 20v10zM580 502q0 -14 4 -24.5t15 -15.5q4 -4 9 -7t10 -3q26 0 44.5 10.5t36.5 28.5q14 12 34.5 32l40.5 39l47 47l83 111l43 46l47 96l20 79q0 2 1 5.5t1 4.5q0 8 -2 18t-8 15l-2 4l-2 4l-3 3h-4q-4 0 -5 1h-7
t-5 2h-16l-3 -2q-3 0 -10.5 -3.5l-16.5 -7.5l-17.5 -8t-12.5 -5q-5 -1 -7.5 -3.5t-4.5 -6.5q-3 -2 -12 -10l-20 -17.5l-20 -17.5t-12 -10l-9 -11h-12l-76 -81q-13 -13 -16 -30q-2 -5 -3 -11t-4 -11q-8 -13 -18 -22t-18 -20l-5.5 -8.5l-7 -11.5t-6.5 -10.5t-3 -5.5l-64 -114
v-9q-2 -14 -3 -29.5t-1 -30.5z" />
    <glyph glyph-name="A" unicode="A" 
d="M-33 38q0 19 12.5 29t29.5 15.5t34.5 9t28.5 10.5q3 2 8 6.5l11 10t12 10t9 6.5l48 24q9 4 22.5 23t27 42.5l25.5 46t17 33.5q2 2 3 11t1 14q1 4 4 10.5t3 8.5q2 2 7 9.5t11 15.5t10.5 15.5t5.5 9.5q1 1 2 7.5t2 14l2 14.5t1 9q6 32 17.5 64.5l23 64.5t20.5 65t12 67
l69 190q14 40 16.5 84.5t14.5 87.5q17 39 41 76.5t44 80.5q7 22 8.5 46.5t15.5 45.5q5 7 25 27l43 41t45 37t32 16q19 0 26 -14q5 -4 10.5 -13t5.5 -11q5 -18 14 -36t15 -39l-1 -22q0 -14 6.5 -29.5l10.5 -25.5q11 -35 19.5 -68t13.5 -66q4 -20 13 -36.5t9 -37.5l-1 -16
q18 -16 27 -29t14.5 -26.5t11 -29t17.5 -37.5q10 -20 15 -37.5t8.5 -35.5l7.5 -38t13 -43q1 -5 6.5 -17t5.5 -16v-38q0 -2 4 -9l9 -15.5t9 -16.5t4 -11q0 -1 0.5 -5.5t1 -10t1.5 -10.5t2 -5l28 -28q7 -6 9 -14t3 -17.5l2 -19t6 -18.5q12 -28 21 -57.5t24 -58.5
q9 -21 15 -44.5t6 -45.5v-12q13 -23 29 -41t26 -35q9 -22 19 -35t19.5 -21t18.5 -12.5t18 -9.5q22 -13 45.5 -19t59.5 -12l28 -7q13 -8 16 -23.5t3 -26.5q0 -21 -16.5 -30.5t-33.5 -9.5l-85 5h-21q-5 4 -13.5 6.5t-17.5 3.5t-16.5 1t-9.5 1h-119q-8 11 -14.5 12.5t-18.5 1.5
q-41 0 -85.5 -10.5t-94.5 -10.5h-22q-16 0 -30.5 1t-25.5 8q-5 3 -5 17l2 16q2 5 2 9v6q0 7 6 9q18 8 41 12t44 9t35.5 14t14.5 27v2q-1 23 -3.5 52.5t-2.5 58.5q0 10 -6.5 21t-7.5 20v61q-2 13 -12.5 41.5t-26 56.5t-33.5 49.5t-36 21.5q-26 0 -53.5 -11t-55.5 -11
q-24 0 -45.5 9.5t-50.5 9.5h-64q-21 0 -42.5 -2.5t-39.5 -13.5q-31 -18 -57 -48.5t-38 -75.5l-7 -70q0 -2 -2 -10t-4 -17t-4 -16.5t-2 -9.5t-1 -6t-1 -8q0 -18 6 -26t15 -24l13.5 -24t17.5 -26q14 -12 37.5 -19t46.5 -15t39.5 -20t16.5 -33v-7q-5 -39 -29 -51.5t-62 -12.5
l-87 23h-36q-18 0 -37 -1t-36.5 -3t-31 -5.5t-20.5 -8.5q-25 0 -49.5 -1t-44 -2t-32 -1.5t-14.5 -0.5q-13 0 -29 4t-30.5 12t-24 18.5t-9.5 24.5zM482 716l-2 -21.5t-1 -19.5q0 -28 13 -37.5t40 -9.5q3 0 5 2q1 1 2 3q2 0 13.5 2t16.5 3q9 -1 17.5 -3t13.5 -2h157
q68 0 68 62q0 9 -6.5 23t-15.5 30.5t-17.5 34.5t-12.5 35q0 7 -5 12l-47 70q0 5 -3.5 10t-5.5 10l-5 21l-12 51t-17 57t-22.5 46t-27.5 19q-9 0 -23 -26t-30.5 -66t-33 -88.5t-29.5 -92.5t-21.5 -78.5t-8.5 -46.5z" />
    <glyph glyph-name="B" unicode="B" horiz-adv-x="1351" 
d="M86 33v5q3 3 16 8.5t31 11.5t38 12l38 11t30.5 9t14.5 5q18 25 27 51.5t13 54t5.5 56t4.5 58.5q7 23 11.5 44t4.5 44q0 17 -8 30t-8 29q0 26 8 52.5t8 49.5q0 8 -1 13.5t-2.5 10.5t-2.5 10t-1 13q0 10 2.5 17.5t6 14t6 13t2.5 14.5l-26 102q0 15 8 25.5t8 27.5l-7 30v64
q0 3 -2 8.5t-5 11.5t-5 11t-2 7q0 26 5 46t5 40l-5 159q-5 10 -11 16t-13 10l-15.5 8.5t-17.5 12.5q-17 25 -45 34t-55 14.5t-46.5 14.5t-19.5 34q0 18 14.5 27.5t34.5 14t40 5.5t32 1h36q18 0 39 -0.5t39.5 -2t31.5 -4t15 -5.5l323 12l82 -5l41 5q36 -15 71 -24t67.5 -21
t62 -30.5t53.5 -52.5l37.5 -55.5t25.5 -47t14.5 -50.5t4.5 -65q0 -29 -7 -64.5t-21 -64.5q-11 -17 -22.5 -28t-24.5 -20t-27.5 -17t-30.5 -18l-11 -21q-7 -9 -25.5 -13t-37.5 -9t-34 -14t-15 -28q0 -9 18 -16t41.5 -13t46 -11t32.5 -9q29 -15 51.5 -30.5t48.5 -31.5l33 -22
q14 -27 33 -55t36.5 -57.5t29.5 -61t12 -65.5q0 -37 -2.5 -70t-16.5 -58q-5 -9 -19 -25.5l-32.5 -37l-40 -42.5t-41.5 -40.5t-37.5 -32t-28.5 -16.5q-35 0 -48 -4.5t-18 -4.5q-53 -17 -96 -28t-96 -15l-45 -15q-27 10 -55 10q-34 0 -61 -10q-58 5 -114 9t-117 4
q-48 0 -97.5 -9.5t-103.5 -9.5q-5 0 -23.5 2.5t-39 8.5t-37 15.5t-16.5 22.5zM505 303l14 -47q3 -39 4 -60.5t5.5 -34t16.5 -21t38 -21.5q10 -5 16 -9t13 -8q21 -9 40.5 -21t45.5 -12q19 0 30.5 6t27.5 6l46 -5q12 0 26.5 6t28.5 15t26.5 19t20.5 19q5 2 14.5 10.5
t19.5 18.5t18.5 19.5t13.5 13.5q4 14 12.5 27t16 26.5t13.5 28t6 31.5q0 44 -3.5 88.5t-14.5 86t-31.5 79t-55.5 66.5q-32 23 -62.5 37.5t-69.5 19.5h-51q-41 4 -74 12.5t-67 8.5l-58 -6l-5.5 -11.5t-7 -16t-7 -15.5t-6.5 -10q0 -16 3.5 -25.5t3.5 -21.5l-14 -140
q0 -27 7 -58t7 -65zM525 761l13 -17l57 19q35 4 73.5 7t74.5 3h26t12 -1q29 24 52.5 54.5t42 63.5t33.5 68l28 68v17l-14 26q-10 36 -25 72t-37.5 66t-53 50.5t-71.5 24.5q-2 0 -8.5 1t-13.5 1.5t-13 1.5t-8 1q-13 2 -24.5 8t-22.5 13t-23.5 12t-26.5 5q-7 0 -20.5 -7
t-27 -17.5t-24 -21.5t-12.5 -20v-41l7 -80q0 -16 -3.5 -33.5l-7 -35l-7 -34t-3.5 -30.5q0 -65 11 -126t16 -118z" />
    <glyph glyph-name="C" unicode="C" horiz-adv-x="1465" 
d="M108 529q0 3 -1.5 9l-3 12.5t-3 12t-1.5 8.5q-2 7 -2 11v8q0 8 2 13t7 15l-12 200l5 56q2 3 4 7q2 3 3 5.5t2 4.5q9 21 14 40t12 40q5 20 5 38q0 22 8 36q13 30 29.5 57.5l40.5 64.5q2 3 4 6.5t4 6.5l19.5 29t11.5 18q12 18 23.5 27t27.5 24q34 26 60 48t62 44l25 11
q9 3 20 8.5l23 11.5l23 11t20 8l102 14q4 0 13 3t13 8q43 1 69 2t49 1q31 0 61 -1l60 -2q19 -5 31 -7.5l19 -4t10 -1.5h6q12 1 19.5 1.5t14 0.5h14.5h21q11 -6 24 -17t24 -11q4 0 8 3t6 3h59q13 2 24.5 8.5t23 14t22.5 13t25 5.5q17 0 29.5 -10.5t12.5 -30.5v-166
q1 -5 3 -16t2 -16q9 -48 21 -98.5t12 -98.5q-1 -6 -5 -13t-9.5 -13t-10.5 -10.5t-8 -4.5q0 -2 -7 -2q-20 0 -34.5 9t-24.5 23t-15 30t-7 30v33q-2 14 -5.5 22.5t-8.5 15t-11.5 13.5t-14.5 18q-11 11 -13 24.5t-11 27.5q-2 4 -9 8t-9 4l-64 46q0 1 -4.5 5.5t-9.5 10
l-9.5 10.5t-5.5 7q-11 6 -12 6q-2 -2 -14 -2q-7 0 -7 2q-21 4 -40.5 13t-35.5 18l-121 5q-7 8 -14 10t-17 2q-34 0 -58 -6t-44 -17q-1 -2 -2 -3q-2 -2 -4 -2q-14 -11 -30.5 -17t-33.5 -11.5t-33.5 -12t-30.5 -18.5l-38 -32q-1 -2 -10 -8.5t-10 -10.5q-5 -11 -17 -20.5
t-16 -11.5q-8 -11 -11.5 -23.5t-7.5 -14.5l-23 -33l-28 -64l-13 -58q-1 -2 -4.5 -7t-8 -10.5t-9 -9.5t-6.5 -4q0 -1 -1 -8t-1.5 -16.5t-1.5 -19t-1 -14.5v-27l5 -102l12 -49l-12 -55q0 -48 13 -96t28 -93q2 -1 18 -24l10 -28q3 -8 9 -15.5t13.5 -14.5l14.5 -13t12 -12l7 -25
t4 -9.5t5 -4t10 -8.5q7 -3 11.5 -9.5t8.5 -14.5l8 -16t11 -13q19 -3 32.5 -3.5t24.5 -12.5q24 -20 45 -34.5t42.5 -25t45.5 -18t54 -12.5l52 -15q26 0 42.5 7.5t32.5 7.5q15 0 28 -10.5t29 -10.5q13 0 21.5 8.5t21.5 12.5q2 0 12.5 2t13.5 3q4 0 13 5t13 9q34 5 43.5 8.5
t11.5 3.5q1 1 5 4.5t8.5 8t8.5 9t6 6.5q4 0 13 5t19.5 12l21 14t17.5 11q5 3 7 7.5t7 9.5q15 21 30 31t32 31q4 4 11.5 12.5t9.5 13.5q1 2 4.5 12.5t7.5 11.5q13 11 25 15t25 4q7 0 12.5 -6t9 -14t5.5 -17.5t2 -15.5q0 -20 -9 -35.5t-20 -29.5l-21.5 -28.5t-14.5 -33.5
q-4 -3 -13 -10.5t-18 -16.5l-17 -17.5t-10 -12.5q-22 -29 -40 -40.5t-34 -23.5q-7 -9 -10.5 -18.5t-15.5 -14.5q-14 -8 -31.5 -14.5t-37.5 -11.5q-32 -20 -57 -27t-52 -16l-40 -22q-53 -3 -73 -8.5t-24 -5.5q-32 1 -43.5 5.5t-15.5 4.5l-62 -20q-11 1 -23.5 2t-24.5 2.5
t-22 4t-15 6.5q-27 7 -56 10t-56 16l-74 29q-2 2 -12 4.5t-14 2.5q-29 38 -33 38h-24q-8 5 -18.5 19.5t-21.5 32.5q0 12 -13.5 15t-23.5 3q-6 3 -8 8.5t-3.5 12t-3.5 13.5t-7 12q-2 5 -10 14.5t-13 13.5q-7 4 -11 6l-7 3.5t-6 5t-8 11.5l-25 38l-22 24q0 35 -5 49t-7 15
q0 4 -2.5 17.5t-4.5 15.5q-20 9 -25 13q-4 3 -6 4z" />
    <glyph glyph-name="D" unicode="D" horiz-adv-x="1643" 
d="M105 61q0 15 14 22t35.5 11.5l46.5 9.5t46.5 16t35.5 31t14 55l-7 33q0 7 4 11.5t9 8.5t9 9t4 14l-8 69l5 40q2 5 2 21q0 32 -9.5 55.5t-9.5 46.5q0 14 1 17q12 38 19 78.5t7 77.5q0 16 -7 22l-8 182q-4 17 -11 37t-7 41q0 2 1 5t6 17q0 48 -4 94.5l-8 96.5l2 31
q0 1 -5 6l-11.5 11t-11.5 12t-5 9q2 5 3 9t1 8q0 5 -1 10.5t-3 10.5q-1 5 -13.5 11.5t-30.5 12.5l-38.5 12.5l-38 12t-29 11t-11.5 9.5q0 14 8 23.5t20 15t26.5 7.5t28.5 2q23 -9 47.5 -10.5t47.5 -1.5q61 0 111 6q39 4 82 9t79 11l32 10.5t13 3.5q12 0 18.5 -1t10.5 -2h102
q5 -2 12.5 -2h13.5h13.5t12.5 2q59 0 113 -15l111 -32q2 0 14.5 -2.5l27 -5.5t28 -5.5t16.5 -2.5q2 0 7.5 -4.5t12.5 -9t12.5 -8.5t7.5 -4l47 -6l3.5 -3t7.5 -7t8 -7t6 -4q28 -21 60.5 -32.5t64.5 -31.5q32 -38 71 -76t74 -78q1 -1 2.5 -4t3.5 -10.5t6 -20.5t9 -34
q0 -12 4 -16q0 -3 5 -9t11.5 -13l12.5 -13t9 -8q0 -20 4 -35.5t9 -29.5t9 -27t4 -26l-4 -57l12 -78q0 -30 -5 -58t-12 -55t-15 -54.5t-14 -57.5v-38q0 -1 -6.5 -9.5t-6.5 -12.5q-9 -22 -20.5 -43l-23.5 -42.5l-23.5 -43.5t-20.5 -46l-85 -74l-57 -33q-7 0 -7 -5
q-22 -30 -54.5 -54t-71.5 -24l-52 5q-9 0 -21.5 -6.5t-23.5 -10.5q-3 0 -12 -1.5l-18.5 -3t-18 -3t-10.5 -1.5q-3 0 -16 -3t-30 -6.5t-34 -7.5t-27 -6q-12 -10 -31 -10q-7 0 -18 2.5l-32 7.5q-1 0 -6.5 -1.5t-12 -3.5t-13.5 -3.5t-11 -1.5q-7 2 -18 6t-15 4q-45 -6 -87.5 -8
t-84.5 -2q-44 0 -85 2t-84 8q-26 5 -44 6t-44 1l-114 -22q-12 0 -24.5 3t-22.5 9.5t-16.5 16.5t-6.5 25zM510 320q0 -47 30 -90t74.5 -75t95.5 -51t92 -19q54 0 97.5 12t88.5 38q13 8 23.5 12.5l20.5 9t20.5 10.5t23.5 15q36 26 70.5 56t64.5 68l5 26q4 17 10 29.5t13 24.5
t13.5 24.5t11.5 28.5q0 1 1 7t2 13t2.5 13t1.5 7q7 18 16 36.5t17 37.5t13.5 39t5.5 41q-5 14 -6 19.5t-1 10.5t1 12t1 8q-2 8 -5 30t-5.5 46.5t-4.5 47t-2 30.5q-9 12 -11.5 28.5t-2.5 30.5q0 13 1 22.5t1 17.5q-17 12 -24 29.5t-11 36.5l-8.5 38.5t-15.5 35.5q-1 2 -5 6.5
l-9 10t-9 9.5l-5 5l-17 23l-56 57q-23 22 -42.5 47t-45.5 43q-19 13 -36.5 18.5t-35.5 10.5t-37 14t-40 28q-12 10 -38.5 16t-56.5 9.5t-57.5 4.5t-40.5 1q-46 0 -99.5 -6.5t-96.5 -24.5q-8 -4 -13.5 -19t-9 -35t-5 -42t-1.5 -39v-30q0 -36 9.5 -68.5t9.5 -71.5
q0 -5 -2.5 -13.5t-4.5 -10.5q-3 -21 -4 -42t-1 -41q0 -17 1 -34.5t4 -33.5q7 -20 8.5 -33.5t1.5 -26.5t-0.5 -24t-2.5 -28l2 -24l-2 -18q-5 -9 -6 -15.5t-1 -16.5v-16q0 -45 3.5 -93t8.5 -94q4 -27 12.5 -54t8.5 -53z" />
    <glyph glyph-name="E" unicode="E" horiz-adv-x="1418" 
d="M52 59q0 19 14.5 31t35 19.5t41.5 10.5t35 3h81q9 2 23 11t27.5 21.5t24 28t12.5 29.5q3 21 3 45q0 19 -3 40l14 22q-14 51 -19 102t-5 100q0 10 1.5 25t4 30.5t5.5 30t6 25.5q1 3 3 7q4 8 4 10q3 7 7 13q2 5 4.5 10.5t2.5 8.5q0 8 -8 14t-13 6q2 33 3.5 66.5t1.5 65.5
q0 34 -1.5 66.5t-3.5 66.5q-5 14 -6 20.5t-1 17.5l7 59l-7 107q0 12 -10.5 27t-24.5 28.5t-28.5 23t-23.5 11.5h-72l-8 4q-3 2 -6 3.5t-5 1.5q-14 4 -31.5 6.5t-32.5 8.5t-25 17.5t-10 33.5q0 18 5 27.5t14.5 14t23 5.5t30.5 1q27 0 52 -2t43 -15l10 2t9 1h19
q48 0 99.5 -7.5t94.5 -11.5l57 -10q13 0 26.5 4.5t28 10t28.5 10t28 4.5q10 0 17 -5t22 -5q5 0 9.5 5t15.5 5q10 0 15.5 -1t10.5 -9h39q21 0 44 7.5t46 7.5q14 0 22 -2t23 -13l180 -9q13 -1 24 -3q10 -2 21 -3.5t19 -3.5q5 0 12 -1t13 -4t10.5 -8t4.5 -13q3 -9 6 -29.5
t5.5 -43.5t4 -43t1.5 -28q5 -34 8 -69t3 -69h-16q-22 0 -36 34q-9 12 -13 16.5t-6 9.5q-14 19 -28.5 41.5l-26.5 42.5t-21 36.5t-12 23.5q-12 5 -25 7.5l-25 5t-22 7t-17 15.5q-8 15 -31 15q-9 0 -10 -2q-5 -1 -12.5 -2t-15.5 -1q-17 0 -34 1.5t-28 1.5q-7 0 -9 2t-7 2
q-2 0 -3.5 1t-3.5 2q-22 3 -44 4t-44 1t-43 -1t-43 -4q-7 -2 -16 -8t-17.5 -14.5t-15.5 -17.5t-9 -17q-8 -34 -10 -76.5t-2 -87.5v-104q-9 -11 -11 -22.5t-2 -27.5v-35q0 -24 1.5 -47t7.5 -45t17.5 -42.5t31.5 -39.5l161 -6q19 0 37 7q5 2 12 3.5t14 1.5l39 -1q17 0 31 10
q8 2 18.5 7.5t21 13t19.5 15t14 13.5q6 12 13.5 39t17 54t21 48t26.5 21q13 0 24 -19v-92q0 -13 -2.5 -23t-9.5 -28l-12 -16l5 -33q0 -4 2 -23.5t4 -45l4 -52t2 -43.5l-5 -37q0 -17 6 -29t6 -22q0 -26 -9.5 -45t-35.5 -19q-13 0 -20 4.5t-10.5 11t-4.5 15t-1 17.5v12.5
t-2 11.5l-28 49v31q-1 13 -23 25t-55 22t-72.5 18t-77 14t-68 9t-44.5 3q-18 0 -31.5 -11.5t-23 -28t-14.5 -35t-7 -32.5v-79l13 -154v-87q2 -23 18.5 -46t39.5 -42t49 -31t47 -14l71 -5l19 -7h64h44t40 1l41 2t48 4l80 31q16 11 39 32t45.5 44.5t41.5 46.5t28 38
q5 3 10 15.5t11.5 27t15 25.5t20.5 11q11 0 16 -9t5 -18l-18 -63q-15 -52 -29 -105.5t-19 -108.5q-21 -32 -53 -38.5t-66 -6.5h-22t-20 -2l-21 -5q-10 0 -16 2t-11 4l-10 4t-13 2l-64 -7l-33 7l-154 -12q-73 0 -146 6t-151 6l-128 -12l-90 5q-18 0 -35 -4t-33 -9t-31 -9
t-29 -4q-17 0 -37 5t-37.5 15t-29.5 25t-12 35z" />
    <glyph glyph-name="F" unicode="F" horiz-adv-x="1301" 
d="M1127 1208l-49 51q-25 22 -46.5 36t-42.5 22.5t-42.5 11.5t-47.5 3q-9 0 -11 -2h-42.5h-23.5t-10.5 -0.5l-2.5 -0.5h-77q-17 -5 -35 -6t-35 -1q-38 0 -57.5 -1t-31.5 -8q-11 -4 -13 -10.5t-2 -11.5q0 -21 -5.5 -30.5t-22.5 -20.5q-3 -2 -4.5 -10t-3 -18t-2 -20t-0.5 -16
q0 -23 7 -44t7 -47l-9 -63q0 -23 10.5 -46t10.5 -50l-16 -149q0 -9 8 -20.5t13 -17.5q31 -4 63 -11.5t63 -7.5q7 0 12.5 1.5t10.5 12.5q11 1 26.5 2t35.5 1q27 0 58 0.5t61 3t55 8t39 16.5q14 9 21.5 26t11.5 36.5t7 39.5t8.5 36.5t16 27t30.5 10.5q6 0 11.5 -2t10.5 -13
v-42q0 -48 -10 -92q-5 -35 -9.5 -63.5t-4.5 -57.5q0 -25 7.5 -48.5t16 -46t16 -45.5t7.5 -47q0 -15 -0.5 -22.5t-4.5 -9.5q-5 -8 -7 -12t-11 -4q-15 0 -22.5 11t-18.5 22l-14 31l-21 46t-23.5 41.5t-31 37t-42.5 31.5h-45q-35 0 -72 1.5t-64 6.5l-61 11q-26 0 -56.5 -9
t-57.5 -10q-9 -11 -21 -27.5t-12 -35.5q16 -74 27 -145.5t11 -143.5q0 -34 -1.5 -45.5t-3.5 -18.5q8 -24 22.5 -42.5t33.5 -33t40 -26.5t41 -22q1 0 6.5 -6t5.5 -8q4 -2 18 -3.5t18 -1.5h13.5t12.5 2q8 1 13.5 1h12.5h15t14 -1q7 -2 13.5 -2h12.5q5 -5 12.5 -10t14 -12
t11 -15t4.5 -18q0 -11 -5 -22.5t-13.5 -22t-18.5 -17t-20 -6.5h-2q-11 -2 -24.5 -2.5t-23.5 -0.5q-14 0 -26.5 0.5t-32.5 2.5l-19 5q-17 9 -38 16t-43.5 12t-45 7.5t-41.5 2.5q-21 0 -36 -1.5t-40 -8.5q-23 -4 -47.5 -5.5t-47.5 -1.5q-26 0 -48.5 1.5t-48.5 5.5
q-12 -4 -22.5 -13t-27.5 -13l-12.5 3.5t-12.5 1.5q-5 -2 -15 -2h-38q-23 8 -37.5 16t-21.5 31q0 32 33 54q24 2 62.5 13t74.5 29t62.5 43t26.5 55q0 53 -2.5 91.5t-6 74.5t-6 75.5t-2.5 95.5q0 17 3.5 33.5l7 33l7 33t3.5 33.5q0 3 -0.5 8t-0.5 10.5t-0.5 10l-0.5 4.5
l-12 44v77q0 17 -4 34t-8.5 34t-8 33.5t-3.5 32.5q0 4 1.5 13.5t3.5 13.5q4 20 6.5 40.5t2.5 41.5q0 20 -2 39.5t-7 39.5q0 18 -8.5 35.5t-22 33.5t-29.5 28.5t-30 18.5q-18 7 -49 9t-62 7.5t-53.5 19t-22.5 44.5v15q16 9 39.5 18.5t40.5 9.5h24q14 0 27.5 -3t22.5 -14
q17 -3 34 -5t34 -2q15 0 33 2t36 5q5 8 7.5 9t9.5 1q21 0 41 -8t46 -8h22q11 0 23 0.5t26 5.5q36 -6 79 -6q40 0 81 6q37 13 78.5 13t86.5 4q23 2 43.5 3.5t41.5 1.5q15 0 31 -1.5t33 -3.5q4 -2 10.5 -6.5t13 -9.5t12.5 -8.5t9 -3.5q9 0 15.5 3l16.5 8q16 4 33 5.5t35 1.5
q31 0 62 -7q2 0 9.5 -6.5l16 -14l15.5 -14t8 -7.5v-143q20 -49 20 -99q0 -12 -0.5 -24.5t-4 -23.5t-11.5 -18t-22 -7l-14 17l-16.5 20.5l-16 20.5t-12.5 18q0 2 -4 11.5t-9 20l-9.5 20t-6.5 12.5q-2 2 -3.5 16t-1.5 16z" />
    <glyph glyph-name="G" unicode="G" horiz-adv-x="1630" 
d="M109 509q0 9 3.5 14t3.5 18q0 10 -5 14t-16 12q-3 19 -3 37v74q0 11 0.5 19t2.5 19q7 9 8 13.5t1 9.5l-14 46l14 59q0 12 -4.5 22.5t-4.5 20.5q0 8 4.5 14t10 12l11 12t7.5 14l9 32q14 53 46 94t76 80q1 21 17.5 42.5t41 42.5t55 41t61 37t57.5 30.5t45 21.5
q23 9 47 13.5t50 15.5q9 2 35 5t55.5 7t56.5 7t38 5q14 -1 25.5 -2t23.5 -1h97h26.5t25.5 -2q12 -7 34 -15.5t47 -15.5t49 -12t39 -5q21 0 33 9.5t21.5 21.5t19.5 21.5t28 9.5q13 0 22 -6.5t14.5 -16.5t8 -20.5t2.5 -18.5l5 -106q4 -8 6.5 -14.5t2.5 -11.5q0 -18 3 -24
q0 -7 2.5 -20.5t5.5 -27l5.5 -24t2.5 -11.5q2 -16 6 -27t8.5 -21.5t8 -21.5t3.5 -27q0 -3 -4 -7.5t-9.5 -8.5t-11 -7t-8.5 -3q-24 0 -46 15.5t-40 38.5t-32.5 48t-23.5 45l-7 12l-5 26l-33 31q-3 3 -8.5 9.5t-11.5 15l-12 16.5l-10 13q-11 16 -29 24.5t-38.5 13.5t-41.5 9
t-38 12q-14 7 -24.5 13t-20.5 10.5t-22 7t-30 2.5q-23 0 -44.5 -12t-44.5 -16l-71 -5q-46 -8 -87 -31t-77.5 -54.5t-69.5 -67.5l-62 -70q-9 -12 -11 -29.5t-7 -34.5q-8 -22 -22 -44.5l-27.5 -46t-24 -47t-10.5 -47.5q0 -5 1.5 -18.5t2.5 -31t2 -38t1 -39.5l-2 -34l15 -24
v-56q5 -54 13 -104t34 -98q11 -20 25 -35l28 -30l28 -31t26 -36q5 -9 16.5 -10t21.5 -11q48 -70 113.5 -106.5t143.5 -57.5q20 -4 33.5 -10.5t30.5 -6.5q8 0 19 3l12 4q6 0 19.5 1t29 2.5t30 3.5l21.5 3q1 0 13.5 8l31 20l39.5 26.5l39.5 27t31.5 22.5t16 12v31l-5 59
q0 21 2.5 39t2.5 32v21l-10 19v50q-2 18 -10.5 29.5t-19 21.5t-19 20t-10.5 24v31l-5 28q2 9 12.5 14t25 8t31.5 3.5t31 0.5h33l73 -12q23 0 44 3t37 7l5 2h182q3 0 11 -2t16 -6t14 -10t6 -13q0 -21 -19.5 -33t-45 -19t-50 -12t-34.5 -12l-59 -73q4 -9 9 -22.5t5 -27.5
l-14 -111q0 -16 7 -24t7 -18q0 -23 -3.5 -49t-12.5 -49.5t-25 -41.5t-42 -24l-54 -5q-14 -2 -32.5 -11.5t-38 -22t-37 -25t-30.5 -19.5q-12 -7 -25 -8t-22 -1h-36q-21 0 -37.5 -2t-37.5 -11h-166q-44 10 -93 10q-23 0 -46 1l-46 2q-11 0 -17.5 4.5t-12 10l-11 11t-12.5 7.5
q-3 3 -14.5 7.5t-24.5 8.5t-24.5 7t-13.5 3l-64 33q-6 0 -19.5 4.5t-21.5 4.5q-14 3 -37.5 24t-49 47t-47 52t-30.5 38q0 4 -9 15.5t-14 15.5l-10 26q-2 3 -9 8t-14.5 11t-13 11t-5.5 8l-10 64q-3 10 -9.5 20l-13 20t-12 21t-5.5 24z" />
    <glyph glyph-name="H" unicode="H" horiz-adv-x="1756" 
d="M104 7h-12q-19 4 -19 19q0 18 3.5 29.5t24.5 20.5q17 8 39 13l44 10t41.5 11.5t32.5 17.5q10 8 17.5 20t13 25.5t9.5 27t9 24.5l10 239l-10 58q0 5 2.5 15t4.5 17q-5 38 -6 78t-1 82q0 37 1 74t6 75l-2 21q0 4 -3.5 27t-7 51.5l-7 57.5t-3.5 46l-5 31l5 55
q0 21 -0.5 43.5t-4.5 37.5q-6 21 -22 33t-37 19.5t-43.5 11t-41.5 8t-31 11t-12 18.5q0 11 4.5 12.5t12.5 8.5l9 3q45 5 91 7.5t91 2.5q15 0 29 -2l28 -4t29.5 -4t34.5 -2l206 12h79q18 -8 18 -15q0 -9 -6 -15t-14.5 -10t-18 -6t-15.5 -2h-45q-11 0 -20.5 -1t-17.5 -8
q-32 -17 -57.5 -37t-56.5 -41q-9 0 -9 -5q12 -20 16.5 -41t4.5 -42q0 -16 -5.5 -31l-11.5 -31l-4 -16q0 -19 2.5 -33.5t6 -28.5t8 -28.5t9.5 -33.5v-100l3 -33q0 -2 -0.5 -11.5t-2.5 -16.5q0 -11 11 -25.5t22 -21.5h26q21 0 36 3t35 8h48l184 -11l71 5q20 0 32 -8.5t26 -8.5
q21 0 39.5 6t35.5 6l98 -12l44 4q5 1 16.5 7.5t15.5 11.5l4 2l3 3q3 15 6.5 35t6 41.5t4 42t1.5 37.5q0 15 -6 31.5t-6 32.5q0 21 6 41.5t13 40t13 38t6 37.5q0 52 -26.5 84t-65.5 60q-7 6 -24 9t-39 4.5l-45.5 3t-43 5.5t-32.5 11.5t-13 21.5q0 15 7 23t16.5 13.5t20.5 9.5
t20 11h57l391 -28h19q12 0 12 2l28 10h91q11 0 18.5 -8.5t7.5 -20.5q0 -16 -13.5 -24.5t-31.5 -13t-37 -6t-30 -3.5q-28 -5 -48 -25t-40 -47q-3 -48 -11 -93.5t-19 -93.5q-2 -4 -7 -15.5t-5 -15.5l5 -80l-5 -85q0 -4 2.5 -15t2.5 -12l-5 -30q0 -6 2.5 -12t2.5 -17l-14 -97
l21 -69l-24 -87l12 -43q0 -14 -6 -28t-6 -33l17 -65q0 -16 -8.5 -30.5t-8.5 -35.5q0 -120 73 -159q20 -12 51 -14t56 -2q9 0 16 -1t15 -2q21 -4 25 -19.5t4 -29.5q-1 -11 -11 -18l-16 -11q-46 -11 -94.5 -14t-102.5 -3h-37h-17.5t-15.5 1l-124 16l-113 -10l-36 -6h-71
q-16 0 -28 11.5t-12 18.5q0 18 6 29t17 17q11 5 23 7t23 2h26q11 2 14.5 8t10.5 13q15 11 35 19.5t38 19t30.5 24.5t12.5 37l-7 62q0 38 4.5 74.5l8.5 71.5q2 11 7.5 20t5.5 18q0 7 -0.5 13t-5.5 13v140q0 15 -13.5 27.5t-32.5 21.5t-39.5 13.5t-33.5 4.5q-8 0 -15.5 -3.5
l-15.5 -7.5t-16.5 -7.5t-18.5 -3.5l-76 14q-11 0 -20 -5t-19 -11.5t-22.5 -11.5t-30.5 -5l-33.5 9t-28.5 6.5t-29 4t-35 1.5h-33q-11 0 -18.5 -1t-8.5 -1q-14 -4 -28.5 -7t-32.5 -3q-6 2 -16 3.5l-20 3t-17.5 2.5t-8.5 1l-28 22q-9 0 -19.5 -9t-14.5 -13q-13 -9 -21 -16
t-12 -15.5t-5.5 -19.5t-1.5 -27q0 -26 2.5 -56t9.5 -56q1 -3 2 -8.5t2.5 -12.5t2.5 -12.5t1 -8.5q2 0 2 -9q0 -10 -2.5 -19.5t-2.5 -23.5l5 -57q0 -3 -2 -5l-8 -24q1 -5 2 -9q2 -10 3 -12q4 -9 4.5 -20.5t0.5 -21.5v-24q0 -22 3.5 -42t24.5 -36q4 -2 14 -5.5l21 -7t21.5 -6
l14.5 -3.5h21l96 5q55 0 59 -52v-2q0 -9 -4 -19t-14 -18.5t-26 -14t-40 -5.5q-21 2 -30 7t-21 9q-21 7 -55 7h-21q-4 0 -9 -1t-10 -3q-4 -1 -8.5 -2t-8.5 -1l-97 5h-76q-5 0 -15 -0.5t-20.5 -1.5t-19 -1.5t-11.5 -1.5l-21 -16q-44 0 -86 6q-21 5 -40 7.5t-40 2.5z" />
    <glyph glyph-name="I" unicode="I" horiz-adv-x="880" 
d="M427 26q-14 0 -28.5 -3.5t-29.5 -8t-30.5 -8t-32.5 -3.5l-45 6q-15 0 -27.5 -3t-25.5 -3h-73q-9 0 -16 1t-13 3q-38 8 -38 48q0 12 2.5 20t19.5 17q17 7 42.5 10t52.5 5.5t51.5 6t38.5 12.5q6 3 14.5 16t16 28.5t13 29.5t5.5 20l-12 81l22 48l-22 42l22 230l-7 104
q-5 5 -5 22q0 16 2.5 27t6 18.5t6 14.5t2.5 16q0 26 -8.5 49.5t-8.5 51.5l12 71q0 10 -0.5 24t-2.5 29t-6.5 28.5t-12.5 22.5q0 4 2.5 12t2.5 24q0 13 -2.5 23.5t-2.5 14.5q0 5 -2 12t-4 7l-64 59q-12 0 -40.5 6t-58 16t-52.5 23.5t-23 28.5q0 28 18 37.5t39 9.5
q8 0 15.5 -1t13.5 -3q42 -2 83 -7t83 -5q32 0 64 5t64 7q14 5 39 8t52.5 4.5t53.5 2.5t42 3q32 5 64 12.5t64 7.5q21 0 40 -9t19 -39q0 -6 -6.5 -11t-15 -9.5l-15.5 -8t-8 -7.5q-3 -3 -11.5 -10.5l-18 -15.5l-18.5 -15t-14 -9q-15 0 -43.5 -5t-56.5 -15.5t-49 -25.5t-21 -34
v-147q0 -1 1.5 -7l3.5 -14t3.5 -16.5t2.5 -12.5q10 -7 10 -19q-16 -29 -23.5 -59.5t-7.5 -60.5l10 -74l-5 -61q0 -14 3.5 -28t7.5 -28.5t7.5 -29t3.5 -30.5q0 -14 -3.5 -27.5t-7.5 -26t-7.5 -25.5t-3.5 -26q0 -14 2 -24t8 -26v-123q-4 -11 -4.5 -16.5t-0.5 -14.5
q0 -38 8 -68t23 -64q0 -3 10 -10.5t22.5 -15t23.5 -13.5t13 -6q21 0 34 4.5t27 4.5q12 0 34 -3t40 -13q10 -8 18 -17.5t8 -20.5q0 -15 -4 -30t-13 -20q-12 -12 -31 -12q-9 0 -20 -1t-20 -2l-40 -9q-21 0 -45.5 0.5t-49 1.5t-48 3t-42.5 4q-3 0 -11 2.5l-18 5.5t-18.5 5
t-12.5 2q-1 0 -2 1q-1 0 -2 0.5t-2 0.5z" />
    <glyph glyph-name="J" unicode="J" horiz-adv-x="831" 
d="M73 -576h-17q-14 -2 -27 -3t-25 -1q-16 3 -45 2.5t-60 13.5q-25 14 -43 39t-47 53q0 14 4 39t13 49.5t22.5 43.5t32.5 22q23 5 44 5q17 0 34 -5q9 0 19 -8.5t18.5 -20.5t14 -25.5t5.5 -23.5q0 -1 -1 -4.5t-3 -8.5t-3 -11q2 -5 3.5 -14.5t5.5 -13.5q8 -9 11 -18.5t3 -16.5
q-2 -23 -3.5 -28.5t-5.5 -7.5l73 -3q34 0 55 10q21 12 42 28t40 35.5t33.5 41t23.5 44.5v69q0 2 7.5 13t9.5 13l-12 52l17 79l-7 42l12 117q0 11 -0.5 18.5t-4.5 23.5q-3 21 -3 43v92q0 12 0.5 22.5t2.5 24.5q3 6 5 15t3.5 19t2 19.5t0.5 15.5q0 17 -9 29t-9 28q0 13 6 23
t6 25l-12 68l12 67q-7 29 -7 35l16 64l-14 199q0 4 0.5 14t1.5 20.5t2 19t1 10.5l9 24q-8 23 -11 33t-3 12v78l-17 38q0 10 2.5 18.5t6 16t6 14.5t2.5 15q0 12 -5.5 18l-11.5 12.5t-11.5 18.5t-5.5 38l1 24q-10 2 -17.5 7.5t-14 12.5t-14.5 13.5t-18 9.5q-11 3 -36.5 8.5
t-51.5 13.5t-46 18.5t-20 23.5q0 6 4.5 16t11.5 19.5t14.5 16.5t13.5 7l143 -12q2 0 7 2.5t10 4.5l101 -23q11 0 16.5 3.5t16.5 3.5l90 -7l214 14h66q9 -11 17.5 -19t8.5 -21q0 -3 -6.5 -8.5t-14.5 -11.5t-16.5 -11.5t-11.5 -8.5h-107q-8 -9 -14 -13.5t-12 -7t-13.5 -5
t-17.5 -8.5q-20 -13 -30.5 -31.5t-16 -39t-6.5 -42t-1 -41.5v-28l21 -22q0 -11 -4 -21t-9 -19.5t-9 -20.5t-4 -24l7 -55l-21 -137q0 -11 2 -24t4.5 -26.5t5 -25t2.5 -18.5q3 -10 4 -19t1 -15q0 -9 -1.5 -14.5t-3.5 -8.5l-14 -76q11 -13 13.5 -20.5t2.5 -20.5
q0 -4 -3.5 -12.5t-19.5 -36.5q0 -1 8 -12t8 -15q1 -2 1.5 -8.5t1.5 -13.5t1.5 -13.5t0.5 -9.5q0 -5 -2 -21.5t-6 -34.5q-3 -20 -4.5 -37t-1.5 -20q0 -16 4.5 -21t4.5 -12q0 -13 -8 -21t-8 -24q0 -17 8 -31.5t8 -35.5l-16 -54l7 -38q0 -17 -5 -30t-7 -30q-2 -9 -5 -29.5
l-6 -42.5l-6 -42t-5 -28q-7 -9 -9 -15t-2 -16v-30t-1 -8l-23 -70q-4 -32 -5.5 -64t-16.5 -58q-12 -23 -29 -41t-30 -44l-75 -78q-6 -5 -22.5 -11.5t-35.5 -13l-34 -12t-18 -8.5l-83 -5q-13 0 -18 5z" />
    <glyph glyph-name="K" unicode="K" horiz-adv-x="1479" 
d="M1354 -10q-2 0 -9.5 -1t-17 -2l-18.5 -2t-15 -1q-9 0 -28 5t-41 12t-41.5 14.5t-28.5 12.5l-36 41q-2 3 -3.5 8.5t-12.5 10.5q-11 12 -25 22.5t-16 17.5q-11 10 -15.5 19t-8 17t-7.5 16t-13 17l-58 59l-23 38q-5 14 -17.5 27t-28 24.5t-32 22.5t-29.5 21q-21 14 -32 35
t-20 40q-9 12 -23 21.5l-27.5 19.5t-24 22.5t-13.5 31.5l-94 90q-4 5 -14.5 8.5t-23 6t-25 3.5t-20.5 1q-9 0 -17 -5.5t-14.5 -13.5t-10 -17.5t-3.5 -17.5q0 -16 6 -32t8 -30q2 -32 4.5 -68t2.5 -71l-12 -38l5 -29l7 -57l12 -33l-12 -55q0 -27 7.5 -42t20.5 -23t30 -11
t36 -6h20q4 0 14.5 -4t21.5 -9.5t19 -11t8 -8.5q7 -11 13.5 -15.5t11 -7t7 -5t2.5 -8.5q0 -60 -62 -60q-23 0 -46 6t-46.5 13t-47 13t-47.5 6q-34 0 -67 -8t-71 -8l-52 5l-76 -5q-3 0 -9 1.5t-12 4t-11 5t-5 5.5q5 32 25 42.5t46 12.5q14 12 28 22.5t24.5 23t17 27t6.5 33.5
q0 24 -0.5 32t-2.5 13l5 65l16 31q-5 16 -8 32.5t-3 30.5v1q0 4 1 10l2 12t2 10t2 5t1 2q0 2 1 3q1 2 2 5l-4 23v100q-9 21 -15 41t-6 40q0 9 2 9l5 21q-3 21 -4 33.5t-2 20t-1 11.5v9l14 49q0 4 -2.5 7t-4.5 5l-1 39l8 73q0 14 -4 26.5t-4 23.5l8 26q-9 45 -10.5 74.5
t-1.5 55.5q0 10 -6.5 29t-16.5 38t-23 33t-25 14h-21.5t-18.5 2q-12 6 -28 10.5t-30.5 11.5t-24.5 17.5t-10 27.5q0 12 2 19t14 11h22l92 -5l85 3q9 0 19.5 -1t19.5 -8q11 -4 22.5 -4.5t22.5 -0.5q21 0 44 5l46 16q5 2 10.5 2h10.5h24q14 0 26.5 -1t25.5 -6l40 -11
q4 -1 5.5 -13t1.5 -16q0 -13 -13.5 -24t-31.5 -20t-35.5 -16.5t-25.5 -12.5q-6 -8 -12 -26.5t-11.5 -40.5t-9 -42.5t-3.5 -30.5q0 -5 2.5 -9t2.5 -15l-21 -45q0 -8 2.5 -10.5t5.5 -3.5t6.5 -2.5t6.5 -7.5v-24q0 -15 -7 -30.5t-7 -28.5q0 -4 4.5 -13.5t4.5 -11.5v-77
q-2 -2 -5.5 -5t-3.5 -7q0 -5 6 -8t15 -3t14 4.5t9.5 11t9 14t12.5 12.5q16 11 34.5 20l37.5 18t36.5 20t31.5 25q21 20 30.5 47.5t19.5 50.5q4 7 12 10.5t16.5 6.5l17.5 6.5t15 9.5q7 7 25.5 29t37.5 48.5t33.5 51t14.5 36.5l-5 8l-11 17.5t-12 18t-7 9.5l-17 -2
q-13 0 -26 2.5t-23.5 8t-17 14.5t-6.5 22q0 9 5 19t13.5 18.5t18 14t18.5 5.5l21 -7l90 -7q9 5 42 8.5t72 6t75 3.5t50 1q6 0 23 -2t34.5 -7t31 -13.5t13.5 -22.5q-2 -15 -11.5 -18.5t-24.5 -12.5l-33 -17.5t-35.5 -17.5t-32 -13t-22.5 -5q-13 -9 -18 -10.5t-6 -1.5l-30 -14
q-12 0 -27 -12.5t-29 -29t-26 -33.5l-18 -26l-16 -15q-43 -34 -73 -72.5t-67 -81.5l-14 -12l-29 -5q-13 -8 -22.5 -18.5t-18 -21.5l-16.5 -21.5t-19 -18.5q-5 0 -5 -5q0 -4 1.5 -11.5t3.5 -9.5v-43q8 0 24 -10t35.5 -25.5t40 -34t38.5 -36.5t31.5 -33t18.5 -22q2 -2 9 -12
t7 -14q9 -17 22 -29t27.5 -23.5t29 -25t25.5 -33.5q2 -5 7 -5q4 0 11 -0.5t15 -3.5t16 -10t15 -19q4 -11 9.5 -23t12.5 -22t16.5 -17t23.5 -7q10 -12 24.5 -25l30 -26.5l30.5 -27.5t26 -27q1 -1 6.5 -7t5.5 -8q14 -20 33 -35l38.5 -29t37 -30t28.5 -38q6 -12 24.5 -15
t38.5 -7.5t35.5 -15.5t15.5 -39q0 -19 -7 -32t-18.5 -21t-26.5 -11.5t-31 -3.5q-11 0 -19 2.5t-14.5 5.5t-12.5 5.5t-15 2.5z" />
    <glyph glyph-name="L" unicode="L" horiz-adv-x="1457" 
d="M39 50q0 16 7.5 34t23.5 18l83 7q25 5 49 9t46.5 10.5t42.5 17.5t37 32q4 7 6.5 13.5t2.5 14.5q0 16 8 29q0 25 -0.5 45.5t-4.5 46.5q-2 12 -2 20v13q0 16 1 22.5t6 22.5q0 29 -1 48.5t-1 37.5q0 34 11 70l-9 148q-2 4 -3.5 16t-1.5 17q5 12 9.5 26t4.5 31q-3 29 -3.5 56
t-5.5 57q-2 8 -7 13t-5 14q0 11 5 15.5t7 9.5v48q0 21 -0.5 47.5t-3 54.5t-8.5 56.5t-17 54.5q-5 4 -14 10.5t-17.5 13.5l-15 12t-7.5 5q-9 7 -25.5 12.5t-36.5 11l-40.5 11.5t-37.5 14.5t-27.5 20t-10.5 27.5q0 6 7 10t17 6.5t19 3.5t14 1q12 -2 18 -2h10q8 0 10 2
q34 2 70 3.5t72 1.5q34 0 65.5 -1.5t69.5 -3.5q4 -5 9.5 -7t9.5 -2q45 4 77.5 9t59.5 10.5t52 11.5t55 11h24q19 0 46.5 -1t52 -6t42 -14.5t17.5 -27.5q0 -9 -1 -21.5t-6 -21.5q-5 -8 -29.5 -13t-53.5 -8t-57 -4t-40 -1q-5 -2 -10 -3t-9.5 -1.5t-8.5 -0.5l-17 -5
q-36 -4 -55 -7t-29 -9t-12.5 -15.5t-5.5 -27.5q-2 -17 -2.5 -34.5t-4.5 -39.5l-14 -32q0 -13 5 -28t11.5 -30.5t11.5 -31.5t5 -31l-7 -77l14 -64q0 -23 -4.5 -40.5l-9.5 -37.5q-5 -29 -6 -64t-1 -63l-2 -31q0 -25 9 -33v-202q-5 -9 -6 -13.5t-1 -9.5q0 -15 7 -27.5t7 -23.5
q0 -21 -4.5 -45.5t-9.5 -41.5q0 -2 -1 -6t-2 -9t-2 -11q3 -16 19 -32t37 -29t43 -21t37 -8l44 9q4 0 10.5 -4.5t22.5 -4.5q13 0 23.5 7t26.5 7l31 -14l64 -5l28 -7h17q28 4 55.5 7.5t54 9t51.5 15t46 27.5l3 3q4 4 4 9q5 16 13 26.5t17.5 19t20 16t20.5 18.5q14 11 25 31.5
t25 37.5q10 10 24 21.5t29 21t29.5 15.5t26.5 6q5 0 13 -1t15.5 -3t13 -5.5t5.5 -8.5q0 -22 -4 -36.5t-11.5 -26.5t-17 -23t-19.5 -24q-4 -5 -6 -14t-2 -16q0 -6 1.5 -15.5t1.5 -13.5q-3 -13 -9.5 -24t-15 -20l-16.5 -17t-13 -15l-5 -31q-11 -51 -44.5 -76t-83.5 -25l-79 16
l-32 -16h-109q-20 12 -35.5 14t-36.5 2q-23 0 -43 -8t-38 -8h-14l-154 21l-19 7h-90q-11 11 -18.5 12.5t-21.5 1.5q-11 0 -16.5 -1t-14.5 -8h-161q-15 -12 -47 -19.5t-67.5 -11.5t-68.5 -5.5t-51 -1.5q-13 0 -23 6t-17 15.5t-11 20.5t-4 22z" />
    <glyph glyph-name="M" unicode="M" horiz-adv-x="1926" 
d="M84 31q0 16 3 21t12 12q16 11 40 23l49 24l48 23t38 20q22 39 31 83t9 90v29v16t1 16q1 2 2 7t2 11t1.5 11.5t0.5 8.5l12 20l1 37q0 5 -1.5 11.5t-11.5 19.5l17 55q0 8 -1.5 13t-3.5 10q-2 2 -4 8t-2 12v19l11 78l-11 68q0 23 10.5 46t10.5 45l-5 39q0 16 3.5 34t8 36.5
t8.5 38t4 38.5q-4 6 -12 16t-12 18q0 13 -2.5 33t-10 38.5t-20 31.5t-31.5 13l-83 -7h-21q-21 3 -39.5 6t-33 9.5t-23 18.5t-8.5 34q0 18 2 27t8 13t16.5 5.5t27.5 4.5l24 10h33q68 0 130 -8.5t128 -8.5q16 0 27.5 3.5t24.5 3.5q54 -21 81.5 -55t41.5 -89l1 -12q3 -20 6 -32
t9.5 -21t18.5 -17.5t34 -19.5l-2 -21q0 -15 3.5 -29.5t9 -29t10.5 -29.5t8 -33q0 -3 1 -10.5t2.5 -15.5t2.5 -15t1 -9q6 -15 17.5 -33.5l23.5 -37.5l24 -38t20 -34q26 -55 50 -111l47 -113l29 -48q6 -11 9 -23.5t7.5 -22.5t11.5 -16.5t21 -6.5q15 0 21 3t8 10t3 16.5t6 23.5
q0 2 9.5 8t11.5 8q19 25 32 53.5t23.5 59t19.5 61.5t20 61q0 1 4.5 11l10 22.5l11 24.5t7.5 17q15 38 24.5 70t25.5 66l7 19l42.5 79.5t48.5 67.5q0 16 -2.5 23t-2.5 12t2 15.5t5 22t5 21t2 12.5q2 4 4.5 16t2.5 17l21 22q0 3 1 10.5t1.5 15t1.5 13.5t1 8q6 13 20.5 23.5
t32 17t34.5 10t29 3.5q20 0 40 -11q21 -7 43 -7l90 18q36 0 63.5 -1.5t65.5 -9.5q30 -5 30 -33q0 -26 -18 -40.5t-45 -24t-58 -16t-58 -15t-45 -22t-18 -36.5q0 -21 7 -40.5t15.5 -39.5t15.5 -40.5t7 -41.5l-16 -94v-200q5 -8 5 -21l4 -107l22 -38v-64q0 -2 0.5 -9.5
t1.5 -16.5t2 -17t1 -11q2 -16 5 -46.5t7.5 -64.5t11 -65t16.5 -47q11 -19 30 -28.5t41.5 -15.5t45.5 -10t41.5 -11.5t30.5 -20.5t12 -37q0 -20 -10 -31t-25 -17t-32 -7.5t-30 -1.5h-52q-21 0 -44.5 1t-44.5 3t-37 4.5t-23 6.5q-3 2 -20 2h-19l-108 -17l-93 10q-4 0 -11.5 -4
t-9.5 -6q-18 0 -36 3t-32.5 10t-24 18.5t-9.5 28.5q0 22 29 30l23 2t24 1q37 0 70.5 6.5t55.5 35.5q1 5 3 9l2 6t1 4q0 2 1.5 5l3.5 7l7 24q6 23 8 46t2 46q0 29 -2.5 56.5t-7.5 57.5l-2 9q-2 6 -2 15.5v20.5v32.5t-1.5 33t-4.5 28t-8 18.5q2 5 2 7.5v6.5v16l-22 164l5 121
q0 9 -1 23.5t-1.5 29t-1.5 25l-1 10.5q0 9 -0.5 26t-3.5 34t-10 30t-19 13q-4 0 -7.5 -2t-3.5 -4l-15 -69q-14 -6 -16.5 -20t-2.5 -30v-15.5t-2 -13.5q-16 -29 -36.5 -52.5t-36.5 -49.5q-5 -5 -9 -17.5t-8 -27t-7 -27t-5 -18.5q-13 -35 -30 -70t-37 -69l-7 -15
q-2 -2 -3 -15.5t-3 -17.5q-3 -2 -8.5 -7l-11.5 -11t-11 -11.5t-8 -7.5l-14 -72q-3 -14 -10 -26t-14.5 -23.5l-14.5 -23t-11 -24.5q0 -2 -1 -10t-2.5 -18t-2.5 -19t-1 -12t-3.5 -19.5t-8.5 -35.5t-9.5 -34.5t-6.5 -17.5l-24 -28q-2 -3 -2 -19q0 -8 -1 -18.5t-5 -19.5
t-10.5 -15t-16.5 -6q-9 0 -18.5 7t-19 18t-18 23t-15.5 23q0 2 -4 7.5t-4 8.5q-19 32 -25 68t-17 74q-2 9 -12.5 29t-23.5 42.5l-25 43.5t-18 33l-47 90l-47 90l-22 70q-29 65 -61 121.5l-64 116.5q-2 4 -7 11t-7 8l-22 24q-3 6 -3.5 13t-1.5 13t-5 10t-14 4q-5 0 -6.5 -1
t-4.5 -6l-12 -116v-48v-66.5t2 -66.5q3 -65 3 -133l3 -9q2 -5 4 -13.5l5 -21.5l-8 -20q0 -17 -4.5 -29.5t-4.5 -38.5v-17l19 -37q2 -4 2 -9v-11v-33q0 -26 2 -51t15 -41l78 -88q0 -20 10 -30t25 -16t32.5 -9t32.5 -8.5t25 -15.5t10 -28q0 -3 -0.5 -8.5t-2 -11t-4.5 -9.5
t-7 -4h-95l-26 10h-24q-22 0 -41.5 2.5t-39 5.5t-40 5.5t-44.5 2.5q-10 0 -20 -8.5t-21 -12.5q-26 -2 -53 -7t-54 -5q-8 0 -19 -2.5t-26 -2.5q-7 0 -15.5 1t-16.5 7q-25 10 -25 40z" />
    <glyph glyph-name="N" unicode="N" horiz-adv-x="1766" 
d="M217 102l15 4q8 4 14 12.5t11.5 18.5t12 20.5t14.5 18.5q0 11 -3.5 16t-3.5 10l31 38l28 239q13 17 15 36t2 35l-5 118q0 16 2.5 25t6.5 25q4 9 5.5 22.5t3.5 24.5v93q0 5 3 12t5 9v121l4 59q1 1 3 11t2 11q-9 32 -13 63.5t-22 57.5q-2 0 -3 3q-1 1 -2 3l-40 17l-52 52
q-9 7 -23 9.5t-28.5 4t-28.5 4t-23 9.5l-33 26q-5 5 -12.5 6t-18.5 1l-25 -1q-14 5 -24.5 17t-16.5 29q0 18 14.5 28.5t34.5 15t40.5 5.5t31.5 1q21 -7 40.5 -9.5t40 -3l41 -1t42.5 -3.5q1 0 9 -2.5t17.5 -5l18.5 -5t11 -2.5h13l73 22q8 0 18.5 -4.5t21 -11t20 -13.5
t15.5 -11l6 -8q10 -18 26.5 -42.5t35 -49t37.5 -46.5t35 -34l48 -27q4 -2 10 -10t6 -9l8 -26q6 -11 10.5 -16.5t9 -9.5t10.5 -7.5t15 -10.5l32.5 -32t23 -26t17.5 -29t17 -42q1 0 14.5 -11.5l29 -25l28 -25t11.5 -11.5l11 -26q0 -3 3 -8.5l6.5 -11.5t7.5 -11t7 -7l22 -10
l44 -41.5t43.5 -47t37 -49.5t24.5 -49l100 -95q15 -43 51 -72t79 -29v40q0 9 1 20t3 20q0 1 2.5 6t5 12l5 13.5t2.5 9.5q0 11 -5 15.5t-5 9.5l10 57q0 27 -4 61t-6 60q0 2 -0.5 8t-1.5 13t-2 13t-1 9v2q0 9 2 15q1 3 3 4l9 19l17 92q-7 11 -9 21.5t-2 19.5l6 95l-6 99
q0 11 2 19.5t14 13.5v26q0 12 -6 27t-16 29.5t-22 26t-25 14.5q-2 0 -8 1t-13 2.5t-13.5 2.5t-8.5 2l-23 16q-2 1 -13.5 3t-15.5 2q-20 8 -35 15.5t-27 16.5t-22 21t-22 28q-5 7 -10.5 7.5t-10.5 11.5q2 6 12.5 9.5t23 6t23.5 3t14 0.5q5 0 5 -1q4 0 14.5 -2t15.5 -4
q63 -6 117.5 -13t115.5 -7l152 15q13 0 27.5 -1t26.5 -5.5t20 -14t8 -26.5q0 -28 -18.5 -41t-44.5 -20t-53 -12t-45 -16l-11 -33l-48 -45q-2 -2 -3.5 -8.5t-1.5 -10.5q1 -5 4 -13t7 -16l8 -16l7 -14v-5q0 -7 -2 -21t-5 -29t-5 -27t-2 -15q-2 -2 -2 -12v-10t2 -7v-61
q0 -21 -3.5 -41.5t-13.5 -34.5v-123q0 -13 -0.5 -29t-2.5 -31.5t-6 -30.5t-12 -25v-28q0 -40 -4 -78l-8 -79q-2 -21 -8 -39t-6 -39v-46t1.5 -51.5t4.5 -51.5t8 -45q6 -20 10 -35.5t6.5 -31.5t4 -33t1.5 -40v-50q-10 -17 -27 -17q-18 0 -39.5 13.5t-44 34.5t-45 47.5
l-44.5 52.5l-42 49t-36 38q-2 4 -5.5 18t-8.5 18q-16 17 -34 40.5t-35 39.5q-21 16 -38 33t-32 35.5l-29.5 37.5l-30.5 39q-6 8 -14 13.5t-16.5 10t-15 10t-9.5 13.5q-35 48 -70 86.5t-81 67.5q-8 4 -12.5 10.5l-9 13t-10.5 13t-16 11.5q-2 3 -8.5 13.5l-14.5 23l-15 24
t-9 14.5l-12 10q-5 21 -12.5 35.5t-18 26.5t-24 25t-30.5 31l-9 14q-5 15 -15 25t-22 19t-24.5 17.5t-21.5 19.5q-7 8 -10 15.5l-6 14.5t-9 11.5t-20 6.5q-6 0 -18.5 -8.5t-12.5 -15.5l5 -29q0 -11 -5 -27t-5 -32l10 -31l-10 -28q0 -14 4 -35t13 -32q5 -16 7 -33t2 -37
q0 -22 -2 -41.5t-7 -37.5q7 -9 7 -16q0 -17 -3 -31t-6.5 -26.5t-6.5 -24.5t-3 -25v-33q0 -13 0.5 -28t2 -29.5t4 -26.5t5.5 -18q-5 -13 -8 -22t-5 -17t-3 -16t-1 -19q0 -30 6 -61.5t18.5 -61t31.5 -55.5t46 -45q8 -5 17.5 -7l19 -4t18.5 -6t16 -13q16 0 34 -1.5t34.5 -4.5
t30.5 -8.5t22 -13.5q8 -18 13.5 -33t5.5 -41q-17 -22 -34.5 -34.5t-46.5 -12.5h-19l-40 21q-30 5 -73.5 8t-83.5 3h-68q-11 0 -22 -1t-25 -6h-160q-3 10 -11.5 12t-17.5 3t-15.5 3t-6.5 11q0 23 10.5 37.5t27 23.5t36.5 13.5l39 8.5h7z" />
    <glyph glyph-name="O" unicode="O" horiz-adv-x="1695" 
d="M98 502q0 13 7 25.5t7 27.5l-26 111q0 29 3.5 65t8.5 63q8 25 13 53.5t8 57t4 54t1 43.5q11 14 22 24t20 19.5t15 22t9 31.5l55 57l26 12q6 3 14 14t16.5 25.5l17 28t16.5 20.5q57 41 112.5 76t121.5 68q5 1 10 3q5 1 9.5 2t7.5 1q16 2 26 7.5t19 11t19.5 10t25.5 4.5
l49 -8l15 8l37 11q45 6 87.5 7t86.5 1q14 0 46.5 -6t68 -14.5t65.5 -17.5t40 -14q29 -20 52.5 -48t49.5 -48q16 -12 31.5 -20l30.5 -15.5t30 -16t29 -21.5q5 -2 12 -8t14 -13.5t12.5 -14t8.5 -9.5l7 -31q2 -12 10.5 -22.5t19 -21l20 -20.5t12.5 -21q8 -12 18 -30.5t20 -39.5
t17 -41.5t9 -35.5v-59q4 -17 7.5 -27t10.5 -21q4 -11 7 -21.5t3 -27.5q0 -2 -1 -7t-1.5 -11t-1.5 -11.5t-1 -8.5l10 -26l-5 -43q2 -5 2 -12v-16q0 -32 -4 -56.5t-8 -31.5q-11 -32 -25 -59l-29 -53.5l-29.5 -54.5t-27.5 -61q-6 -6 -12 -9t-12 -5t-12 -6t-11 -11
q-3 -5 -6.5 -13l-8 -17.5t-9.5 -18.5t-11 -15l-20 -12q-8 0 -15.5 -7.5t-7.5 -13.5l-20 -24.5l-28 -32l-29 -30.5t-23 -21l-12 -7q-5 -2 -9.5 -4t-6.5 -2l-111 -38q-7 -8 -10 -12.5t-6 -6.5t-7 -3.5t-13 -3.5l-66 -6l-71 -31q-9 -2 -18 -3q-8 -1 -16.5 -1.5t-16.5 -0.5
q-11 0 -26.5 2.5l-32.5 5.5t-33.5 6.5l-29.5 6.5q-20 5 -42 6t-44 1q-38 0 -73 2.5t-69 16.5l-15 21q-11 3 -26 4.5t-30.5 4.5t-29 8t-20.5 15q-15 18 -24 30.5t-18 22t-22.5 18t-37.5 18.5l-31 7q-10 5 -22 20t-24 35t-24.5 43t-22.5 44.5l-18 38.5l-12 26
q-9 24 -22.5 34.5l-25.5 20t-21 25.5t-9 52zM309 725q0 -20 7.5 -37t17.5 -33t18.5 -32t10.5 -35q2 -3 2 -12l-2 -48q0 -9 2 -20t10 -22q6 -11 13 -15.5l13.5 -9t12 -10.5t8.5 -19l1 -10q0 -7 -0.5 -13t-0.5 -18q0 -17 5 -28q4 -11 15 -14t18 -12q15 -39 30 -64.5t41 -47.5
q35 -28 71.5 -54t75.5 -46.5t82 -32.5t91 -12q13 0 22 2t17.5 5l17.5 6t22 6l63.5 9.5t64.5 5.5q21 16 47 30t51.5 29.5t47 34.5t34.5 45l52 105q14 10 20.5 26t10.5 33t8.5 34t15.5 30l21 138q0 16 -2.5 30t-2.5 34l12 33q0 16 -7.5 38.5t-18 46l-21.5 46t-19 37.5l-10 17
l5 28q0 15 -5 26.5t-11 21l-12 19t-8 21.5l-9 49q-9 28 -37 65.5t-63 73.5t-71 63.5t-61 34.5q-15 5 -41 6t-42 1l-26 32q-7 3 -24.5 8.5t-37 11t-38.5 9t-29 3.5q-20 0 -51.5 -4t-64.5 -12t-61 -20t-41 -28l-5 -16q-8 -6 -16.5 -9.5t-16 -8t-13 -11t-8.5 -19.5
q-23 -6 -31.5 -11t-12 -11l-7.5 -13.5t-18 -18.5q-39 -26 -63 -67t-36.5 -89t-17 -98.5t-4.5 -93.5l5 -71q0 -9 -8 -21.5t-8 -26.5z" />
    <glyph glyph-name="P" unicode="P" horiz-adv-x="1184" 
d="M69 62q0 6 4 12.5t9.5 12.5t11 11t8.5 8h26q22 0 43.5 1.5t41 6.5t37 17t32.5 33l31 38q5 5 6 9.5t1 15.5l-7 131q0 32 10.5 61t10.5 57q0 31 -10.5 64t-10.5 67q0 8 2.5 13.5l5 11l5 11.5t2.5 14l-10 71l10 95v39l-15 27q-2 25 -5 48l-4 40t-3 33l14 47q0 14 -6 46
t-16 66t-21.5 62t-22.5 34q-17 5 -47 9.5t-59.5 14t-51.5 25.5t-22 44q0 9 5 9q16 0 28 3t22.5 7t21 7t23.5 3l80 -10l161 16l33 -11l52 11q29 4 57 5.5t57 1.5q27 0 54 -1.5t53 -5.5q21 -11 42.5 -12.5t43.5 -1.5q24 0 47 -2t45 -7q18 -3 47 -16.5t59.5 -32t56 -40.5
t36.5 -42q9 -23 16.5 -50t13.5 -54.5t9.5 -55t3.5 -51.5q0 -12 -0.5 -32t-3 -41t-6.5 -39t-10 -27l-30 -38l-7 -38q-5 -12 -22.5 -32.5t-39 -42t-42 -39.5t-32.5 -23q-9 -5 -22 -11.5l-27 -13.5t-26.5 -12.5t-20.5 -7.5l-70 -5l-44 -14q-12 0 -29 3.5t-32.5 10.5t-27 15.5
t-11.5 19.5q0 16 21 24l116 24q1 5 7.5 8.5t11.5 5.5q35 18 65 47.5t52 65.5t34.5 76.5t12.5 82.5q-2 8 -5.5 14.5t-4.5 11.5q0 1 -1 2.5t-1 5.5l-9 65.5t-15 64.5q-4 10 -21.5 27.5t-40 37.5l-46 39.5l-39.5 33.5l-89 21h-79q-9 -5 -25.5 -9t-32 -10t-27.5 -16.5t-12 -28.5
v-116q7 -9 8 -14t1 -17l-9 -38q0 -2 4.5 -12.5t4.5 -15.5v-17l-18 -52l23 -116q0 -9 -0.5 -14.5t-4.5 -16.5v-154q4 -9 4.5 -16.5t0.5 -16.5l-14 -58q0 -37 10 -73.5t12 -74.5q1 -28 1 -57.5t1 -59t4 -58t12 -55.5q1 -7 22.5 -22t48.5 -30.5t51.5 -27t31.5 -11.5h31
q11 0 16 -0.5t12 -4.5q0 -1 4.5 -5l10.5 -9.5t12.5 -10.5t11.5 -8q2 -5 3.5 -8t1.5 -8v-3q-9 -20 -27.5 -31t-40.5 -16t-45 -6t-42 -1l-76 14q-11 0 -21.5 -4.5t-22.5 -4.5l-83 23h-12q-8 0 -10 -2q-43 -5 -86 -15.5t-92 -10.5q-20 0 -49.5 1t-57.5 7t-48 18.5t-20 35.5z
" />
    <glyph glyph-name="Q" unicode="Q" horiz-adv-x="1678" 
d="M77 753q0 28 12.5 53t16.5 52q0 2 1 12t2.5 21.5t3 21.5t2.5 13q2 3 8 14.5l12.5 24t13 23.5t8.5 14q0 1 1 5.5t2.5 9t2.5 9t1 5.5q31 68 82 122.5t110 99.5q2 1 9.5 5l15.5 8.5t15 9t8 6.5q7 2 18 9.5t13 9.5q1 1 5 5.5l8.5 9.5t9.5 9.5t7 4.5q1 1 7.5 2.5t15 3
t15.5 2.5t10 1q1 1 6 4t11.5 6.5t12.5 6t8 2.5h2h7q11 3 22 10t22.5 13.5t23 11.5t23.5 5h6q1 -2 8.5 -6.5t10.5 -4.5q4 2 14.5 8.5t14.5 10.5q32 5 64 8t64 3t65 -3t67 -8q1 0 11.5 -2t24.5 -5l28 -6t22 -6q2 0 9.5 -4t9.5 -4q1 -2 6.5 -8l12 -13t12.5 -12.5t9 -6.5
q4 -2 13.5 -3.5t21 -3t23 -2t20.5 -0.5h8q1 -3 4.5 -7.5t8 -9t9 -8t6.5 -4.5q1 -1 5.5 -2.5t9.5 -3t9.5 -3l4.5 -1.5q2 0 10 -9t9 -10q10 -7 21 -11.5t22.5 -8.5l22.5 -8t21 -11q2 0 9 -8t12 -11q42 -48 77 -93.5t66 -98.5q10 -17 21.5 -45.5t21.5 -59t16.5 -59.5t8.5 -48
v-76q0 -5 4 -16.5t6 -13.5v-5q0 -25 -4 -46t-10 -40.5t-13 -39.5t-13 -42q-4 -18 -5 -31t-2.5 -25t-5.5 -24.5t-14 -28.5q-1 -1 -5.5 -5l-9.5 -8.5t-9.5 -9l-5.5 -5.5t-5.5 -8t-9 -15.5t-9 -15.5t-5.5 -9q-14 -22 -31 -41t-36 -36.5l-38.5 -34l-38.5 -33.5q-7 -5 -22.5 -18
l-32.5 -27l-32 -26l-20 -16q-8 -6 -25.5 -12t-35.5 -13t-31.5 -14.5t-13.5 -17.5q0 -11 4 -15.5t16 -13.5q4 -2 10 -7t12 -9.5l11 -8.5t6 -5q1 0 8 -1t15 -2.5t15 -3t9 -1.5q3 -2 14.5 -7.5t24.5 -12.5t24.5 -12.5t14.5 -5.5q29 -14 57.5 -18t58.5 -12q2 0 9.5 -4.5
t9.5 -5.5q7 -3 20.5 -7.5l27 -9l24.5 -8t14 -3.5q4 -1 19.5 -4t33.5 -6l33.5 -5.5t19.5 -3.5t22.5 -7.5l41.5 -14l46 -15l35 -11.5q18 -7 35.5 -12t34.5 -11.5t33.5 -14.5t31.5 -21l36.5 -7l56 -11l55 -11.5t34.5 -8.5q4 0 15.5 -4.5t13.5 -6.5q34 -13 69 -19.5t71 -10.5
t71.5 -7t70.5 -9q2 -2 13 -6.5t13 -4.5h16h15q2 0 13.5 4.5l16.5 6.5h95l10 8h144q2 0 9 4l12 7q17 10 34 16.5t34.5 11.5t36 9.5t38.5 10.5q19 4 35.5 15.5l33 23t33.5 20.5t38 9q16 0 26.5 -5.5t16.5 -14.5t8.5 -21t2.5 -25q0 -19 -7 -35.5t-18 -31t-25 -27.5t-28 -24
q-42 -34 -84.5 -55l-88.5 -42q-13 -6 -27 -8.5l-27.5 -5t-27 -6t-25.5 -9.5q-3 -2 -12.5 -7l-20.5 -11l-21 -11.5t-14 -8.5q-75 -2 -147 -10.5t-147 -8.5h-83q-23 10 -45 11t-50 8q-2 0 -9 5t-8 5h-44h-17q-5 1 -26.5 6l-47 11l-50.5 12l-38 9q-2 0 -10.5 4.5t-10.5 6.5h-9
q-8 0 -18 -1t-22 -1q-11 0 -23.5 2t-22.5 8q-2 1 -6 5.5l-8.5 9.5t-9 9.5t-6.5 5.5h-7h-24h-7q-2 0 -11.5 2.5t-21 6l-21.5 6.5t-13 4q-2 0 -10.5 1.5t-18.5 3t-18.5 3t-11.5 2.5q-2 0 -9.5 8.5t-9.5 10.5q-3 1 -14 3.5t-24 6t-24 6t-14 3.5l-10.5 5l-18.5 9l-18.5 9
t-11.5 5q-1 1 -6.5 2.5t-12 3l-12.5 3t-7 1.5q-5 2 -16 5.5t-14 5.5q-2 0 -13 6l-24 12.5l-24.5 12.5t-14.5 7h-12h-38h-9q-2 0 -9 5.5t-15 12.5l-14.5 12.5t-7.5 7.5q-16 11 -34 11.5t-34 7.5q-29 13 -52.5 30.5t-54.5 28.5q-2 0 -10 1.5t-17.5 3t-18 2.5t-11.5 1
q-5 2 -16.5 5.5t-12.5 5.5q-1 0 -3.5 4.5l-5.5 9.5t-6 9.5t-4 5.5h-21h-9q-2 0 -9.5 4.5t-9.5 4.5q-4 2 -12.5 5t-18 6l-17 5.5t-9.5 2.5h-19q-2 0 -8 4.5l-12.5 9.5t-11.5 9.5t-6 5.5q-4 2 -16 5.5t-14 3.5q-3 1 -11 5.5t-17 9l-17.5 9t-12.5 5.5q-2 1 -6 4l-8.5 6.5
t-8.5 6t-5 2.5q-2 1 -7.5 2.5t-12 3t-12 3t-8.5 2.5q-3 0 -13 1t-21.5 2.5t-21 3t-11.5 1.5l-29 13.5l-41.5 20.5l-39.5 20.5t-23 13.5q-4 3 -16 14.5t-24.5 25l-23.5 25t-14 13.5q-2 0 -6 3t-9 6t-9.5 6t-6.5 4l-26 21l-34.5 28l-30.5 25t-15 12q-1 1 -4.5 7l-8 13.5
l-9 15.5l-7.5 13q-3 7 -10 21.5l-14.5 30l-13.5 28t-7 16.5q-5 10 -13 29.5l-16 39.5l-14.5 36t-7.5 20v19v48q0 3 -5 10.5t-5 8.5l-3.5 24.5l-5.5 38t-6 39t-4 27.5v19zM288 718v-7q3 -2 6.5 -13t3.5 -13q14 -54 22.5 -108.5t28.5 -105.5q29 -75 66 -141t88 -129
q1 -2 4.5 -5.5t5.5 -3.5q2 -2 13.5 -5.5t14.5 -4.5q3 -2 14 -12l24 -21.5l25 -21.5t15 -13q1 -1 7.5 -2t15 -2.5t15.5 -2.5t10 -1q1 -1 9 -5.5t18 -9.5l18.5 -9.5t11.5 -5.5t16 -2.5t27.5 -3t27.5 -3t16 -1.5q1 0 6.5 -1.5l11.5 -3l12 -3t8 -1.5l4 -0.5t9 -0.5t10 -0.5
t8 -0.5q6 0 16 1t11 1t5 2.5t8.5 6t9 6.5t5.5 4q14 5 34 6.5t34 12.5q2 2 8.5 9.5t14.5 15.5l15 15t10 9q2 0 10.5 1.5t18.5 3t18.5 3t11.5 2.5l6.5 6.5l12 12.5l12 12.5t7.5 6.5q4 3 11.5 9.5l15 12.5t14 10.5t7.5 5.5t6.5 3t12 3.5t12.5 2.5t7 1q3 1 7.5 5.5l9 9t8 8.5
t5.5 5q1 2 2 8t2.5 12.5t2.5 12t1 7.5q2 5 5.5 15.5t5.5 12.5q1 2 4 6.5t6.5 9t6 8.5t2.5 5q1 3 2.5 15l3 25l3 25t1.5 15q0 1 3 7.5l6.5 14.5l6.5 14.5t3 8.5q1 3 2.5 10t3 15t2.5 14.5t1 8.5v35v83q2 27 11.5 57t9.5 59q-1 0 -1 1v2q-1 1 -1 3q0 5 -8.5 17l-10.5 15
q-1 3 -3.5 14t-6 24t-6 24.5t-3.5 14.5q-1 1 -3.5 6.5t-6 12t-6 12.5t-3.5 8t-2 11.5t-2.5 21t-3.5 21.5t-3 13q0 2 -7 10l-15.5 17.5l-15.5 18t-8 11.5q-11 17 -17.5 38t-12.5 42.5t-14 40.5t-24 33q-1 1 -7 3t-12.5 3.5t-12.5 2.5t-7 1l-5 5l-9 9t-9 9.5t-5 6.5
q-2 1 -7.5 3.5t-12.5 6t-13 6t-7 3.5q-2 1 -7.5 5.5l-12 9.5l-12 9t-6.5 4q-34 11 -72.5 14t-71.5 15q-20 7 -32 8.5t-26 1.5h-19h-39q-4 0 -15 -5t-14 -5h-36h-12q-4 -1 -18.5 -8t-30.5 -15.5l-30 -16t-17 -8.5q-32 -15 -59.5 -32t-51.5 -37t-46.5 -43t-44.5 -51
q-13 -16 -14 -34t-5 -34l-5.5 -11l-9.5 -18.5l-9.5 -18t-4.5 -10.5q-2 -4 -5 -19.5t-6 -33.5l-5.5 -33.5t-2.5 -19.5l-20.5 -78.5t-21.5 -75.5v-5z" />
    <glyph glyph-name="R" unicode="R" horiz-adv-x="1544" 
d="M1171 36q-61 50 -107 113t-78 133l-14 36q-5 10 -14 20.5l-18.5 21l-18.5 20t-13 18.5l-22 36l-75 82q-2 29 -27.5 56.5t-60 49.5t-71 35t-60.5 13q-10 0 -25 -3t-29.5 -9.5t-25 -16.5t-10.5 -23l7 -38q0 -14 -3.5 -20t-3.5 -15q0 -16 1 -25.5t6 -26.5l-9 -159l2 -21
q1 -17 1 -33v-33v-31.5t-1 -30.5q0 -9 8 -21t19 -17l47 -31q14 -10 36 -14t46.5 -6t49 -3.5t44 -7t32 -16t12.5 -29.5q0 -15 -11.5 -27.5t-27 -21.5t-32.5 -14t-29 -5q-16 0 -29.5 3.5t-27 8l-28 9t-30.5 7.5q-36 7 -71.5 12.5t-80.5 18.5q-11 0 -23.5 -3.5t-28.5 -3.5
l-71 7q-11 0 -23.5 -10.5t-26.5 -10.5l-163 6q-10 10 -10 20q0 24 23.5 38t54 23t59 15t38.5 14q11 16 11 36.5t4 34.5q5 2 10.5 8t7.5 6q9 22 11.5 52t2.5 59v43q0 21 -4.5 36.5t-4.5 32.5l21 180l-16 97l-5 23v5q0 3 0.5 10.5t1 16t1.5 16t2 10.5q12 5 14 8t2 10l-12 62
l12 54q0 1 2.5 11t2.5 14l-5 26v30l5 64l-17 152v21q-22 27 -43 46t-45 32.5t-51.5 23.5t-63.5 19q-14 3 -14 17t18.5 24t42.5 16t47 9t32 3l59 -5l63 5l88 -19q27 0 53 7t57 7l83 -9l85 9q50 0 97 -9.5t95 -23.5q23 -8 50.5 -12.5t48.5 -18.5l22 -16q40 -24 72.5 -45.5
t55 -48t36 -62t16.5 -88.5q2 -26 7 -47.5t5 -47.5q0 -11 -2.5 -17t-6.5 -11t-8.5 -10t-8.5 -14q-5 -10 -7 -23.5l-4 -27t-5 -26t-8 -19.5q-17 -24 -40.5 -39t-44.5 -36q-9 -15 -28 -24.5l-38 -18.5t-33.5 -22t-14.5 -35q0 -11 4 -16t9 -9t11 -8t11 -12q1 -3 9 -15
l17.5 -25.5l17.5 -25t10 -12.5q37 -48 66.5 -98t67.5 -94l45.5 -52t51.5 -43q8 -4 14 -15t11.5 -24.5l11 -26.5t12.5 -21q38 -27 70.5 -48t67.5 -47q16 -11 37.5 -19t41 -18t33 -24.5t13.5 -36.5q0 -21 -17.5 -27t-38.5 -6h-147q-31 14 -61 14.5t-68 4.5q-8 1 -20.5 6.5
t-26 13t-26.5 16l-23 14.5zM488 810q0 -23 8.5 -40t23.5 -28.5t34.5 -17.5t40.5 -6h36q3 16 29.5 27.5t59 20t64 14.5t45.5 12q20 9 40 27.5t36 36.5l33 63q15 26 24.5 54t9.5 60q0 8 -3.5 15.5t-7.5 15t-7.5 16t-3.5 19.5q6 27 7 33t1 10v10q0 4 -9.5 12t-10.5 12
q-24 44 -55 73.5t-68.5 47t-81 25t-93.5 7.5q-4 0 -17 -2l-28 -4.5t-27.5 -5t-15.5 -4.5q-2 -2 -5.5 -7.5l-7 -11.5l-6.5 -11.5t-4 -7.5v-28q0 -54 -10 -105.5t-24 -105.5l-14 -20l21 -26q1 -5 3 -20.5t4 -24.5v-14q-2 0 -4.5 -4t-2.5 -8q0 -2 2.5 -10t4.5 -9z" />
    <glyph glyph-name="S" unicode="S" horiz-adv-x="1050" 
d="M349 10q-26 9 -55 13.5l-58.5 9t-56.5 11.5t-48 21.5t-33.5 39.5t-12.5 65v25l19 191q4 8 7 12.5t13 4.5q22 0 32 -19q38 -54 66.5 -105l61.5 -108q4 -10 21.5 -19.5t41.5 -19t52 -17.5t53.5 -14t46 -9.5t30.5 -3.5h19q16 0 18 2l10.5 7l16 11l16 11l10.5 7q4 4 14 8
t14 4l41 11q4 0 18 21.5t29 47.5q18 30 38 69q0 2 1 11t1.5 19.5t1.5 20t1 13.5v16q0 11 -0.5 19.5t-2 17t-4 18.5t-6.5 24l-2 6q-8 11 -20.5 20t-22.5 21q-12 17 -17 26t-10 15t-14 11t-29 14q-1 0 -11 3t-15 7q-14 8 -27 11.5t-26.5 5l-27.5 3t-29 6.5q-14 11 -23 22.5
t-26 19.5q-3 0 -10.5 1.5t-16 3.5t-16 3.5t-9.5 1.5l-52 54q-14 10 -25.5 14.5l-21.5 8.5t-19.5 9t-21.5 16q-9 8 -13.5 16t-7.5 16t-5.5 16t-7.5 16q-2 8 -8.5 19t-10.5 17q-23 27 -37 46.5t-21.5 38.5t-10 41.5t-2.5 57.5q0 42 10 87.5t29 88.5t46.5 81t62.5 65
q10 10 22.5 14.5t26 6.5t27.5 2.5t27 3.5t24.5 9l23 12.5t24 11.5t26.5 5q43 0 81.5 -5t76.5 -14q26 -6 47.5 -16t48.5 -10q19 0 34.5 11t30.5 24.5t31.5 24.5t37.5 11q19 0 25 -18t6 -34l-19 -65l8 -118v-26q0 -27 -1.5 -45.5t-8.5 -46.5q-2 -5 -6.5 -9t-7.5 -4q0 -2 -7 -2
q-5 0 -15.5 13t-25 33l-30.5 44l-32 46.5t-30.5 40.5t-25.5 25q-20 13 -44 21.5t-50 13t-52 6.5t-48 2q-33 0 -57 -6t-42 -19t-32 -33.5t-26 -48.5q-10 -22 -16.5 -35t-11 -24t-6.5 -23.5t-2 -33.5q0 -53 18 -92t48 -67.5t70 -47t85 -31.5l10 -7q24 -15 42.5 -25.5t35.5 -19
t35.5 -16.5l42.5 -19l116 -74q2 -1 4.5 -3.5t5.5 -4.5q4 -3 7 -6l18 -50q4 -7 7.5 -15.5t7.5 -12.5q3 -2 10 -10t14.5 -17.5t13 -18t5.5 -11.5q3 -6 7.5 -17.5l9 -23.5t8 -23t3.5 -16v-147q0 -1 -4.5 -13t-9.5 -20q-3 -1 -5 -5q-1 -2 -2 -5l-4.5 -13l-7.5 -22t-8 -22t-6 -12
q-3 -9 -10.5 -19t-16.5 -19t-17.5 -16t-12.5 -10q-9 -12 -10 -26t-12 -21q-39 -14 -64 -31.5l-47.5 -33t-47.5 -26.5t-63 -11h-12q-27 2 -35.5 2.5t-12.5 0.5z" />
    <glyph glyph-name="T" unicode="T" horiz-adv-x="1495" 
d="M354 43q0 28 17 42.5t43 14.5l66 -8q25 0 50.5 10t48 26.5t38.5 38.5t22 46v53q5 44 14 83.5t9 81.5l-14 43v230q-2 12 -2.5 23.5t-0.5 26.5v182q4 11 5 26.5t1 33.5q0 19 -1.5 32.5t-1.5 25.5l7 10v116q-8 17 -11 30.5t-8 23t-14.5 14.5t-30.5 5l-55 -14
q-26 0 -51.5 8.5l-54.5 18.5q-49 -3 -82 -6.5t-60 -10.5t-53 -18t-61 -30q-13 -17 -24 -41t-23.5 -46.5t-28.5 -38.5t-38 -16h-14t-14.5 1.5t-11.5 4.5t-5 8q0 17 2.5 29.5t6.5 23.5t7.5 22.5t5.5 26.5v64l16 38q3 7 5.5 21.5l5 30.5t5.5 32t6 26q3 15 7 31t11 29.5
t17.5 22.5t27.5 9q19 0 41 -15t44.5 -34.5l44 -37.5t39.5 -24q9 -2 31.5 -5.5l48 -7.5t47.5 -6.5t31 -2.5q15 0 27 2.5t23 6t23.5 6t29.5 2.5h25q22 0 26 -1l15.5 -8t13.5 -8h5q17 0 32.5 3.5t31.5 7.5t32 7.5t34 3.5q21 0 39 -6t34 -6h31q41 0 80.5 2.5t81 5.5l85 6t92.5 4
q14 0 24 -3.5t21 -3.5q13 0 21.5 6.5t15.5 15l13.5 17t15.5 13.5q13 5 24.5 12.5l22 15t21 12.5t23.5 5q11 0 19.5 -12.5t15.5 -20.5q0 -2 1 -3q0 -1 1 -1q-2 -6 -2 -15.5v-20.5v-99v-21t2 -13l8 -108q0 -3 -0.5 -11l-1 -16.5t-1 -16t-0.5 -9.5q-7 -12 -26 -12
q-18 0 -32 13.5t-26.5 31.5l-24 35.5t-24.5 26.5q-20 16 -38.5 27t-34.5 32l-36 -4l-236 19l-34 -8l-50 8h-18l-15 -15q0 1 -1 -10l-2.5 -27t-2.5 -32t-1 -26l7 -104v-199l-14 -75l14 -122q0 -11 -1 -17t-6 -18q0 -12 0.5 -39t0.5 -61q0 -32 -0.5 -57t-0.5 -37l-7 -50
q0 -12 1 -33.5t3 -47.5t6 -53.5t11 -50.5t16.5 -39.5t22.5 -19.5l130 -33h23l27 6q12 0 20.5 -6.5t14 -16.5t8 -20.5t2.5 -19.5q0 -17 -7 -26.5t-18 -14.5t-24.5 -6t-26.5 -1q-11 0 -20 3t-20 11q-9 5 -21 9t-24 4l-50 -13q-20 0 -48 7t-57 12q-1 0 -9 -1.5t-18 -4t-18.5 -4
t-10.5 -1.5h-90q-23 -1 -41 -9t-40 -8l-20 5.5t-15 3.5q-14 0 -25.5 -3.5l-25.5 -7.5l-36.5 -8t-38.5 -4h-15q-14 0 -26 2t-30 7q0 2 -5 19.5t-12 28.5z" />
    <glyph glyph-name="U" unicode="U" horiz-adv-x="1729" 
d="M393 227l-39 105.5t-39 101.5q0 2 -1.5 5t-3.5 6q-3 4 -5 8v97l-9 19v73q-3 7 -8.5 13l-11.5 12t-10.5 13.5t-4.5 18.5q-1 11 -1 21.5v18.5v18.5t1 15.5v139l-5 76l5 19l-5 45v19l5 69q-2 5 -3 9q-2 10 -2 14q-2 4 -6.5 14.5t-11 23.5t-14.5 25.5t-16 19.5q-8 6 -21.5 12
l-30 14t-34 19t-32.5 26q-9 10 -19 16.5t-18.5 11.5t-14 10t-5.5 13q0 14 9 24t22.5 16t29.5 8.5t29 2.5l33 10l52 -5h19q32 0 61.5 -4.5t48.5 -9.5l56 2q11 0 24.5 1t27.5 4q14 2 26 5.5t24 3.5q21 0 36.5 -4.5t27.5 -4.5q25 0 47.5 6t51.5 6l45 -3l16 -8l19.5 -10
t16 -10.5t6.5 -11.5v-44q0 -9 -19.5 -19t-44 -18.5t-48 -15.5t-31.5 -11q-23 -14 -52.5 -34t-49.5 -45v-100l-9 -80q0 -4 1.5 -10.5t1.5 -17.5q0 -18 -10 -31v-128l7 -26q0 -2 2.5 -17t5.5 -35t5.5 -41t2.5 -35q-3 -5 -5 -11.5t-2 -19.5q0 -4 2 -7.5t13 -6.5v-59v-23t2 -22
l16 -48l57 -116l23.5 -40.5t24 -39.5t27 -36t34.5 -29l46 -11l25 -26q29 -20 64.5 -23t71.5 -3h33t27.5 1.5t29 4.5t37.5 8q7 0 12.5 3t10.5 7l10.5 8t14.5 6q26 5 41 11.5t26.5 15.5t24.5 21.5t34 29.5l26 12q1 0 6.5 13t13 33l16 44.5l16.5 47l14.5 39.5t9.5 24
q6 12 11 35.5t9.5 50t8.5 53t8 46.5q0 18 -3 43t-3 47l-5 23l21 38q0 4 -5.5 15.5t-10.5 15.5v66l14 114l-12 95q0 4 -1 12.5t-1 22.5q-2 4 -10 17t-16 28l-22 38q-3 2 -11 6.5l-16.5 9t-16 8t-10.5 3.5l-20.5 9.5l-23.5 11t-23.5 10t-20.5 6.5q-8 3 -24 5t-32.5 6t-28.5 11
t-12 21v15l33 7l36 19q18 4 36.5 5l37.5 2t37 4t33 12h43q35 0 66.5 -2.5t70.5 -2.5h57q38 20 80.5 29t87.5 9q4 0 12.5 -2t17.5 -6t15.5 -10.5t6.5 -14.5v-59l-9 -5q-18 -11 -38.5 -13l-40.5 -4q-23 -3 -45 -9t-47 -10q-30 -22 -43.5 -53.5t-20 -66t-11.5 -69t-17 -62.5
v-234l-14 -38v-123q-4 -8 -4.5 -15.5t-0.5 -20.5q0 -12 2.5 -19t2.5 -23l-13 -36q-5 -20 -12 -38.5t-11 -39.5l-21 -85q-8 -26 -18 -48.5t-23 -44.5q-5 -11 -12 -18.5t-14.5 -14.5t-14 -15t-9.5 -19q-13 -30 -54 -61l-42 -35l-43 -34q-8 -4 -15.5 -10.5l-15 -13t-15.5 -11.5
t-18 -7h-33l-46 -22q-12 -4 -27.5 -4.5t-30.5 -0.5h-43l-66 -6l-51 6l-77 -6q-1 2 -9.5 5t-19.5 8q-13 6 -28.5 11l-28.5 9l-31 7q-25 8 -45.5 12.5t-22.5 6.5q-7 4 -12 11.5t-9.5 15t-10 14.5t-13.5 11q-31 14 -58 34t-47 53z" />
    <glyph glyph-name="V" unicode="V" horiz-adv-x="1343" 
d="M378 697l-1 7q-14 37 -27.5 67t-22.5 68q-3 12 -10 21.5l-14 19t-13 19t-8 20.5q-11 51 -23.5 98t-30.5 95l-24 51l-14 50q-11 19 -27.5 33t-33.5 26.5l-32 24.5t-23 26q-11 0 -24.5 1.5t-26 6.5t-21 13.5t-8.5 22.5q0 15 9 23t21 8l59 -7q5 0 10 5t14 5q8 0 14 7h69
l114 -10q34 0 62.5 8t60.5 13q20 1 34.5 2t25.5 1q12 0 27.5 2.5t33.5 6.5q3 0 17 -1.5t29 -5.5t27 -11.5t12 -18.5l-5 -55q0 -6 -8.5 -12.5t-20 -12.5t-23 -9.5t-16.5 -3.5l-33 7q-20 0 -32.5 -1.5t-33.5 -5.5q-9 -4 -15.5 -12t-6.5 -19q0 -23 9 -43t13 -42l6 -81
q2 -17 7.5 -33.5t12.5 -32.5l14 -32t11 -32v-50q0 -4 8.5 -14t10.5 -14q11 -20 18 -45.5t13 -52.5t12.5 -53.5t15.5 -47.5q10 -27 26.5 -57t23.5 -57l5 -57q6 -10 12.5 -29t14 -37.5t16 -32.5t19.5 -14q17 0 27.5 9.5t21.5 20.5l8 10q5 11 5 19q-1 11 -1 18.5v11.5q0 7 1 8
l33 54l11.5 31l13 37l13 38.5l11.5 35.5q6 13 11 31.5t11 37.5t14 36t19 28q-3 2 -3 14v48q0 5 0.5 9t2.5 9q0 2 1.5 9t4 15.5t5.5 17t5 13.5l12 24v49q5 4 13 11.5t8 12.5q17 42 28 96t11 105v19q-9 14 -20 26t-32 17q-15 3 -39 3q-16 0 -33 1.5t-31 7t-23 16t-9 29.5
q0 15 5.5 24.5t15.5 15t23 7t27 1.5l177 -22q44 0 88 21q23 6 43 12.5t38 6.5q26 -12 49.5 -15.5t49.5 -3.5h21h11.5t12.5 1q5 -2 9 -5q4 -2 7 -4t3 -4q4 -8 6.5 -17t2.5 -18q0 -22 -9 -36q-4 -11 -14 -20.5t-15 -11.5h-57l-25 6q-4 0 -11.5 -1.5t-16.5 -3.5t-17.5 -3.5
t-12.5 -2.5q-23 -19 -38.5 -43t-26 -50.5t-17 -54t-10.5 -54.5q0 -7 -5 -12l-30 -42q-10 -10 -10 -27v-14.5t-2 -15.5q-3 -7 -8 -11.5t-11 -8.5t-11 -8t-8 -10l2 -36q0 -26 -5.5 -49t-24.5 -36l-22 -87q-21 -20 -38.5 -51.5t-30.5 -60.5q-5 -12 -6 -23.5t-2.5 -22.5
t-6 -22.5t-16.5 -23.5q0 -19 -4.5 -36t-11 -33.5t-15.5 -34l-18 -36.5q-9 -22 -18 -49t-20 -48l-16 -22q-8 -8 -10 -16q0 -6 1 -14t1 -17q0 -13 -1 -20t-1 -11q0 -3 -2 -9.5t-4.5 -13.5l-4.5 -12.5t-3 -7.5l-8 -16q-3 -9 -7 -30.5t-9.5 -45t-11 -44.5t-9.5 -29
q-11 -35 -30.5 -51t-55.5 -16q-10 0 -18 9.5t-14.5 22.5t-11 26t-6.5 20q-3 7 -8.5 30t-11 50l-11 52t-9.5 37q-11 50 -26 94.5t-24 92.5q-2 10 -9.5 16t-16 11.5t-16 12.5t-10.5 19l-14 90q-2 5 -6 17.5l-8 25.5t-7 24t-3 14q-5 21 -16.5 39t-11.5 39z" />
    <glyph glyph-name="W" unicode="W" horiz-adv-x="1957" 
d="M928 1009l-50 141l-21 39q-11 29 -15.5 58.5t-15.5 56.5q-6 12 -23.5 15.5t-37 7t-34.5 11t-15 27.5q0 21 12 28.5t29 7.5q21 0 40 -1t40 -6q14 -2 29 -3.5t33 -1.5h31q26 0 31 2q17 7 34.5 8.5t34.5 1.5h21q26 -4 37 -4.5t15 -0.5q46 11 78 17.5t67 6.5q3 0 11.5 -1
t16.5 -3.5t14.5 -6t6.5 -8.5q6 -9 10.5 -18t4.5 -18q0 -8 -4.5 -17t-10.5 -18q-7 -5 -15 -10t-13 -5l-41 12q-21 0 -44.5 -6t-43.5 -18t-33 -30.5t-13 -44.5v-15q5 -20 8 -37t5 -32.5t3.5 -32.5t2.5 -37l2 -19q0 -11 6 -27t13.5 -33t15.5 -32.5t12 -24.5q8 -25 14.5 -52
l13 -54.5l13.5 -54.5t18 -52q0 -30 0.5 -52t4.5 -33q0 -2 3.5 -7l7.5 -11l7.5 -11t3.5 -7t3.5 -11t7 -19.5t7 -19t3.5 -9.5q2 -7 4 -20.5t6 -27t10.5 -23.5t17.5 -10q25 0 39 11.5t22.5 28.5t14.5 35t14 32l26 33q2 2 3.5 8t2 13.5t1 14t0.5 9.5q2 4 10.5 10.5t10.5 8.5
q6 8 9.5 26.5t9 40.5t13 44t20.5 36q4 4 8 11.5t4 9.5l4 16t6 25.5t5 25t2 14.5l12 14q1 0 6 11l11.5 26.5l13 32t9.5 27.5q12 25 31 47t28 49l12 73q9 20 13 28t4 19t-1 15.5t-2 8.5q-4 18 -17.5 23.5t-15.5 5.5l-49 13h-26.5t-22.5 0.5t-24 1.5t-29 3q-5 8 -11 20t-6 23
q0 12 11 23t26 19.5t30 14t23 5.5q38 0 82 -3.5t82 -20.5l87 19q11 0 21 -9.5t19 -9.5q4 0 9.5 4.5t9.5 5.5q29 14 62.5 25.5t65.5 11.5q11 0 18.5 -7.5t7.5 -20.5q0 -8 -3.5 -18.5t-10 -20.5t-14.5 -16.5t-17 -6.5q-11 -3 -21 -10.5l-19 -14.5t-18.5 -12.5t-19.5 -5.5h-7.5
t-4.5 1q-1 0 -7.5 -2.5t-15.5 -7t-18 -11t-15 -13.5q-17 -23 -27.5 -36t-17.5 -33q-26 -50 -46.5 -97.5t-46.5 -101.5q-13 -26 -17.5 -54.5t-13.5 -54.5t-28 -52.5t-31 -53.5q-8 -17 -14.5 -33l-13 -32t-14 -32.5t-17.5 -35.5q-9 -21 -24.5 -44.5t-22.5 -45.5
q-9 -22 -14.5 -45.5t-10 -47t-10.5 -46t-16 -41.5q-2 -3 -9.5 -12.5l-16.5 -20.5l-16 -20t-7 -11l-5 -59q-9 -18 -23.5 -28t-23.5 -31q-4 -16 -6 -40.5t-4.5 -50t-7.5 -48t-15 -34.5q-4 -6 -12 -14.5l-16 -16.5t-14.5 -13.5t-7.5 -5.5q-4 -4 -10 -5.5t-12 -1.5q-19 0 -37 7
q-10 2 -18.5 17t-15.5 36.5t-13.5 46.5t-11 47.5l-8 40t-4.5 23.5l-6 92q0 3 -3.5 14.5t-8 24t-8 23.5t-3.5 12q-11 39 -14.5 76t-9.5 73q0 4 -5.5 10l-11.5 13q-5 9 -13.5 21t-11.5 15q0 2 -2.5 15.5t-4.5 17.5q0 1 -1.5 9t-3.5 10h-15q-17 0 -30 -15t-23.5 -35t-19.5 -40
t-17 -31q-2 -3 -8 -8.5t-12.5 -13t-12.5 -16t-9 -16.5l-7 -52q0 -2 -3.5 -7.5l-7.5 -11.5l-7.5 -11.5t-3.5 -7.5q-4 -17 -6 -35t-13 -34q-2 -6 -5 -8t-6.5 -4t-6.5 -5t-5 -11q-1 -7 -4.5 -19l-7 -24.5t-6.5 -22t-3 -12.5v-55q0 -2 -0.5 -5t-0.5 -5l-13 -46t-20 -54
t-28.5 -44.5t-37.5 -18.5q-13 0 -29 11.5t-31.5 28t-27.5 34.5t-17 32q-8 20 -12 41t-6.5 42t-5.5 43t-8 43q-3 12 -9.5 22l-13.5 20t-13 20t-9 21q-8 29 -18 55.5t-22 52l-24 51t-24 54.5q0 5 -1.5 11t-1.5 8v52q-2 9 -7.5 20t-12.5 22.5l-14 22.5t-11 20q0 1 -2.5 7
t-4.5 10q-8 32 -17.5 62l-19.5 60t-18.5 60.5t-13.5 63.5q-11 10 -16.5 22.5t-8.5 26l-6 27.5t-7 27l-26.5 65t-27 62t-32.5 58.5t-44 55.5q-11 8 -26 10t-28.5 5t-23.5 9.5t-10 23.5l-2 26q0 9 10 19q8 6 21 9.5t27 6t28 3t25 0.5q6 -1 14 -3t10 -2h2q40 0 83.5 7.5
t82.5 11.5l79 -9l61 9l109 -14q20 -6 23.5 -20.5t3.5 -31.5v-19l-12 -15h-97q-13 -8 -25.5 -14t-22.5 -14t-16 -20t-6 -32q0 -9 4 -16.5t9 -14l10.5 -13.5t7.5 -15q6 -23 9 -44.5l6 -44t8.5 -45t15.5 -46.5q2 -6 10 -22l16.5 -33.5l15.5 -33t7 -21.5l14 -108l46 -65
q1 -2 2 -8.5t2 -14t2 -14t1 -8.5q5 -34 14.5 -69t23.5 -66l19 -36l6.5 -12.5t9.5 -17l9.5 -15.5t6.5 -9q5 -7 8 -18.5t6.5 -22t9 -18t15.5 -7.5q11 0 21.5 6t23.5 27q2 4 10 13.5l17.5 21l17.5 21.5t11 15q0 19 5.5 32t13 25l15.5 24t14 28l40 123q4 15 10 30l11.5 30
t9.5 31t4 35q0 22 -7 42t-15 39.5t-15 39.5t-7 43v6z" />
    <glyph glyph-name="X" unicode="X" horiz-adv-x="1655" 
d="M36 29q0 24 15 39.5t39.5 25.5t55 16t60.5 10.5t57 9.5t45 12q17 7 40 24.5t46.5 39.5t43 44.5t29.5 40.5l1 5l2 10.5t2 10t2 5.5q6 18 16.5 31.5t23 24.5l26 22t26.5 24q9 10 15.5 25l13 29.5t16 26.5t24.5 16q5 0 10.5 6t9.5 8l13 22q5 10 18 24t28.5 26.5t31.5 23
t27 13.5q5 1 5 12t-9.5 27t-24 33l-30 33.5t-27.5 27.5q-26 27 -26 34q-1 2 -2.5 8t-3.5 12.5t-4 12l-2 5.5q-2 3 -8.5 8t-14 10t-13 9t-6.5 6l-41 69l-33 26q-17 16 -26.5 36.5t-25.5 36.5l-57 55q-3 22 -7.5 32t-11 15.5t-14.5 10t-19 15.5l-16 31q-23 26 -46.5 43.5
t-60.5 17.5h-149q-11 0 -18 6t-11.5 14.5t-6.5 18.5t-2 18q0 24 11.5 38t29 20.5t38 8.5t39.5 2q15 0 23 -1.5t20 -12.5h149q11 -5 19 -6t24 -1l106 7q8 0 29.5 -1t49 -2.5t58 -3.5t55.5 -4.5t41.5 -6t16.5 -6.5q2 -7 4 -11t2 -8q0 -5 -2 -13t-4 -13q-4 -14 -23.5 -21
l-42 -15t-40.5 -20.5t-18 -36.5q0 -21 8 -39.5t19.5 -35.5t25 -32.5t25.5 -31.5q1 0 3 -6t2 -8q16 -40 41.5 -73l48.5 -65q0 -7 3 -11q2 -3 4 -5q0 -4 1 -16.5t6 -14.5q4 -5 13.5 -10t20.5 -10l21 -10t16 -9l13 -6q14 5 32 27t37.5 54t39.5 70l38.5 74.5l33.5 67t25 48.5
q8 16 18 24.5t10 25.5q0 4 -3.5 15.5t-8 24t-9 22t-7.5 9.5q-14 -2 -24 -6t-24 -4q-13 0 -27 4t-30 6q-8 5 -14.5 8.5t-11.5 8t-8 11t-3 17.5t2.5 22t16.5 11q26 4 62.5 7t81.5 3q50 0 107.5 -3t119.5 -7q43 4 85 9t81 5q22 0 34 -8.5t12 -34.5q0 -14 -10.5 -23t-26.5 -14.5
t-36 -9t-38 -6t-32.5 -6t-20.5 -9.5l-53 -52l-35 -17q-12 -9 -26 -24.5t-27 -32.5t-24 -34t-17 -30q0 -4 -1 -15t-5 -13q-2 -2 -10 -3.5t-9 -1.5q-16 -11 -35 -31.5t-35 -32.5q-11 -16 -12.5 -34t-11.5 -30l-47 -47q-20 -26 -34 -48.5t-40 -48.5q-17 -18 -17 -32
q0 -26 18.5 -56.5t42 -59l44 -51.5t23.5 -34l41 -75q11 -20 31 -37.5t32 -31.5q17 -27 27 -53t26 -52q4 -9 17 -16t19 -12q36 -40 58 -62l33.5 -33.5t15 -14.5t4.5 -6l50 -43q21 -11 43 -16.5l44.5 -11t44.5 -11.5t43 -18v-23q0 -13 -5.5 -20t-14.5 -10.5t-20.5 -4.5
t-23.5 -1h-26q-11 0 -24.5 3.5l-28 7l-29.5 7t-29 3.5q-13 0 -26 -3.5t-29 -3.5l-50 12l-61 -5h-20q-10 0 -15 0.5t-10 4.5h-50l-192 -12h-19q-8 0 -17 1.5t-17 4t-13.5 6.5t-5.5 10q0 8 13 18t32 21l41.5 23.5t41.5 25t32 26t13 26.5q0 5 -2.5 12l-4.5 13q-3 7 -6 15
q0 3 -6 9l-13 12.5l-13.5 12t-8.5 8.5q-6 10 -9 21.5t-5.5 22.5t-5.5 21t-10 18q-2 1 -7 5t-11 9.5l-10.5 10t-5.5 6.5v28q-7 19 -19.5 36t-26 33.5t-26 34t-20.5 37.5q-3 5 -10 20t-15.5 30.5t-16.5 27.5t-13 12q-37 -38 -62 -83l-52 -90q-37 -58 -67.5 -112t-48.5 -112
q-2 -2 -3.5 -8t-1.5 -10q-2 0 -7.5 -7t-6.5 -8q0 -21 10 -34.5t25 -23t33 -17.5t33 -17t25 -20.5t10 -29.5t-16.5 -26t-29.5 -12q-2 -2 -11.5 -4.5t-22 -5t-24.5 -4.5t-18 -2h-4q-35 0 -69 10.5t-68 10.5l-119 -26q-5 1 -9 2l-8 2t-7 1q-18 0 -40.5 -5.5t-45 -12.5
t-42.5 -12.5t-33 -5.5q-16 2 -34.5 7t-22.5 5q-13 5 -22 8t-14.5 7t-8 11t-2.5 22z" />
    <glyph glyph-name="Y" unicode="Y" horiz-adv-x="1394" 
d="M305 76q0 13 12.5 22t29.5 14.5t34 8t26 2.5l40 -5q11 6 27.5 8t32 6t28 12t14.5 26v27l19 18q0 10 -3.5 15.5t-7.5 8.5v95l11 109v41q0 64 -12 120q-14 51 -58 100q0 9 -4 18.5t-9 20t-9 20.5t-5 19v43l-12 16q-11 8 -23 21t-23.5 27.5t-21 30t-15.5 28.5q-2 0 -4 10
t-2 14q-5 22 -17.5 49t-28.5 54.5t-33.5 53.5t-32.5 46q-7 11 -9 23.5l-4 25t-7 24.5t-18 22q-16 10 -44 18.5t-55 19t-47 26.5t-20 41q0 11 8 21.5t19 18t24 12t23 4.5q18 0 38.5 -5.5t41.5 -6.5h69q48 -5 94.5 -15.5t92.5 -10.5l92 20q11 0 25.5 -2t28 -7.5t23 -14.5
t9.5 -22q0 -18 -12 -30.5t-29.5 -22t-38 -18t-38 -19.5t-29.5 -26t-12 -37q0 -6 5.5 -26.5t14.5 -48t20 -58t22 -57t21 -45.5t16 -22q3 -9 11.5 -28l18.5 -39.5l19.5 -38.5t14.5 -26q1 -5 10 -21.5t20 -34.5t21.5 -32t15.5 -14q10 0 25.5 11t32 26.5t30 31.5t19.5 26
q2 4 3.5 15t1.5 13t2 6t4 4q2 4 10.5 14t18.5 20.5l19 20t12 13.5q3 25 15 47t26.5 43l28.5 42t22 44q11 23 17 41t12 39l14 31q0 9 -6.5 22t-15.5 26t-18 23.5t-14 14.5h-5q-6 0 -14 -0.5t-17 -0.5q-15 0 -30 1.5t-26.5 7t-19 15t-7.5 24.5q0 16 8 33t25 17q2 0 7 -3.5
t7 -4.5h2q18 0 32 4t28 4l158 -8q36 0 65 1t64 7q2 0 10 1.5t17.5 3.5t19.5 3.5t16 2.5q9 0 13.5 -2t15.5 -9l69 -8q8 -1 18 -3t19 -6.5t15.5 -12t6.5 -18.5q0 -4 -6 -11t-8 -12q-4 -4 -13 -9t-19 -9.5t-20 -8.5t-15 -5q-14 -14 -30.5 -22t-39.5 -10q-31 -5 -52.5 -14
t-42.5 -27q-9 -8 -14.5 -14.5t-5.5 -11.5l-68 -69q-3 -13 -8.5 -18.5t-12 -8.5l-13 -6t-11.5 -12q-6 -9 -9.5 -20t-6.5 -22.5t-6.5 -22t-10.5 -18.5l-74 -80q-4 -5 -6.5 -14.5t-2.5 -23.5v-20t-2 -11q-4 -16 -20.5 -30.5t-36.5 -29t-38 -30t-24 -33.5l-17 -52
q-9 -15 -16.5 -23.5t-13 -16t-9 -18.5t-3.5 -32l16 -114l-16 -137q0 -18 0.5 -39t2 -42.5t5 -42t8.5 -36.5q8 -7 18 -8t15 -3l20 -22q4 -4 23 -8.5t45 -9l55 -9.5t54 -10.5t41 -11t16 -10.5q3 -5 4 -11.5t1 -12.5q0 -7 -1 -12.5t-4 -13.5q0 -1 -4 -3l-9 -4.5t-10 -5.5t-8 -6
q-4 0 -10.5 -3.5t-6.5 -5.5h-45q-55 0 -107 1.5t-103 12.5q-45 8 -82 13.5t-68 5.5t-60.5 -6t-58 -13t-57 -13t-58.5 -6h-24q-21 0 -41 3.5t-32 18.5q-6 9 -7 26t-1 33z" />
    <glyph glyph-name="Z" unicode="Z" horiz-adv-x="1456" 
d="M108 16q0 2 -0.5 7t-0.5 10t-0.5 9.5t-0.5 5.5v14q0 12 2 20.5t9 19.5q4 4 18.5 21l31 36.5l30.5 36.5t16 22l22 29.5t23 34t19.5 35.5t12.5 36q6 4 18.5 16.5l26.5 26t25.5 26t15.5 17.5q21 23 34.5 48t33.5 48q2 3 12.5 13l22 21l21.5 20.5t11 12.5q1 2 2.5 8t3.5 12.5
t3.5 12t2.5 7.5l5 5t8.5 9t9.5 9t7 5q1 3 9 15.5l18 27l18.5 27.5t11.5 16q1 3 5 9l8.5 12.5t9 11.5t6.5 7q2 4 9.5 10.5t9.5 8.5q1 1 5.5 2.5t9.5 2.5t9 2l4 1q1 2 2.5 8t2.5 13t2.5 12.5t2.5 6.5t5 5.5t9 9l9.5 8.5t6.5 5q0 2 1.5 8l3 12.5t2.5 12t1 7.5l4 4q2 2 3.5 2.5
t3.5 1.5q0 1 4 4t8.5 6l9 6t5.5 3q7 5 9.5 8.5t3 7.5t2 9t6.5 13q5 13 13 28t19 28t24.5 22t30.5 11q2 5 8.5 18.5l14 29l14 29t9.5 18.5q8 14 9.5 22.5t1.5 22.5q0 12 -6.5 19.5t-16.5 11.5t-22 6l-23 4h-9q-14 0 -25 -5t-23 -5q-5 0 -7 1q-2 0 -3 1q-3 0 -10.5 4t-8.5 4
q-2 0 -8 -1.5l-12 -3t-11.5 -2.5t-6.5 -1q-6 -1 -26 -2t-43 -2.5t-42.5 -3.5t-23.5 -3q-2 0 -8 -1t-12 -2.5t-11.5 -2.5t-6.5 -1q-5 0 -16 3t-14 4h-154q-3 0 -10.5 -3.5l-16.5 -8t-17.5 -9.5t-12.5 -8q-5 -2 -19 -15t-31 -30.5l-33.5 -34.5l-25.5 -26q-9 -11 -20.5 -36
t-25.5 -50.5t-31 -43t-37 -13.5q-8 2 -13.5 9t-9 16t-5 18t-1.5 14q0 17 6 32.5t14 31l16 30.5t12 30q0 3 1.5 10t3 15.5t3 15t1.5 8.5q1 3 5.5 11.5l9.5 18.5l9 18.5l5 10.5q6 19 7 35t2.5 29.5t7.5 25.5t21 24q3 1 8.5 1.5t12.5 1t12.5 0.5h8.5q31 0 64.5 -8t59.5 -33h49
q32 0 64.5 6t64.5 6q14 0 27 -6t27 -6h9q1 1 7.5 4t15 6.5t15.5 6t10 2.5q1 0 6.5 -1t12 -2.5t12 -2.5t7.5 -1h11q15 0 29.5 3.5t30.5 3.5h16q45 -8 89 -13.5t94 -5.5h9q1 0 5.5 2t9.5 4t9 4t5 2q7 0 34.5 -1t53.5 -1h23t14 2q13 1 26 6.5t26.5 12t26.5 12t26 5.5h11
q4 0 10.5 -1.5l12.5 -3t10.5 -3t4.5 -2.5q1 -1 4.5 -8l8 -16l9 -18l7.5 -15v-7q0 -14 -8 -27.5t-19 -25t-22.5 -21t-17.5 -16.5q-47 -51 -81.5 -107.5l-72.5 -114.5q-30 -43 -68 -81t-67 -81q-3 -2 -6 -15t-3 -15q-2 0 -5.5 -4t-4.5 -4q-2 -1 -6 -3.5l-9 -5.5t-9.5 -6
t-5.5 -4q-6 -5 -15 -14.5l-18 -18.5l-16 -16.5t-8 -9.5q-2 -2 -6.5 -13t-9 -24l-8.5 -24.5l-5 -14.5q-7 -18 -22 -36l-27 -32q-6 -8 -23.5 -29.5l-37.5 -46l-38 -47l-25 -31.5l-9 -19q-1 -2 -19.5 -24.5l-43 -53l-50 -62.5l-41.5 -53q-8 -10 -15.5 -16.5t-13 -13.5t-9 -16
t-3.5 -22q0 -8 7.5 -13t17.5 -8t20 -4.5t15 -2.5q1 0 8 -1.5t15.5 -3t15.5 -3t10 -2.5l5.5 -2.5t12 -6l12.5 -6.5l8 -4h3h5q37 11 72 23.5t74 14.5q6 0 17 0.5t26 0.5t32.5 0.5t34.5 0.5q35 0 66.5 -1t44.5 -1q2 3 8.5 6.5t10.5 3.5q2 0 9.5 -4t9.5 -6h4h6q1 1 5 4l8.5 6.5
t9 6t5.5 2.5q2 2 9.5 -3.5t9.5 -5.5h5h6q2 3 8.5 10.5t14 15t15 14t10.5 9.5q5 2 9 4q3 2 6 3t4 2t3.5 7t6 12.5t6 12t3.5 6.5t3.5 5.5t6 9.5t6 9t3.5 5l10.5 21.5l18 37l18 36.5l10.5 21q3 6 18.5 19t33.5 26t35 23t24 10q14 0 23 -9.5t14 -22.5t6.5 -27t1.5 -23v-7.5
t-2 -7.5q-4 -8 -13.5 -28.5l-20 -43.5l-20 -44t-12.5 -29q-15 -36 -24 -69t-23 -59t-40 -43t-77 -21h-17h-24q-10 0 -18 -1t-19 -8h-586q-6 -2 -20 -3.5l-29 -3t-28.5 -2.5t-17.5 -1q-3 0 -13.5 1.5l-22 3t-21 3t-11.5 2.5h-12h-10q-2 -2 -13.5 -6t-12.5 -4h-70h-67
q-5 0 -19 4.5t-19 14.5z" />
    <glyph glyph-name="bracketleft" unicode="[" horiz-adv-x="866" 
d="M852 1436q13 -3 16 -11.5t3 -19.5v-14q0 -22 -1.5 -39.5t-10.5 -40.5q-1 -5 -6 -8.5t-11 -5.5t-11.5 -3.5t-7.5 -1.5q-35 -6 -66.5 -8t-63.5 -2h-52q-13 -9 -28 -9h-10q-23 0 -43 5.5t-40 5.5h-14.5t-11.5 -2q-9 0 -22.5 -1.5l-27 -3t-24.5 -3t-13 -1.5t-7.5 -5
l-11.5 -11t-11.5 -12.5t-7.5 -9.5q-6 -13 -8 -38.5t-2 -47.5v-23q0 -47 2.5 -102.5t7.5 -96.5q0 -3 3 -10l6.5 -15.5t6.5 -15t3 -7.5v-16q0 -11 -2.5 -18.5t-16.5 -14.5v-67q0 -2 -1.5 -7.5t-3.5 -12t-3.5 -12t-1.5 -6.5q0 -3 0.5 -10.5t0.5 -17t0.5 -20.5t0.5 -21v-18.5
t-2 -9.5q0 -2 -2.5 -7.5t-6 -12l-6.5 -12t-4 -6.5v-5v-5q0 -1 1.5 -6.5l3.5 -12.5t3.5 -13t1.5 -7v-41v-16q0 -2 1.5 -8l3 -12.5t3 -12t1.5 -6.5v-9v-10q0 -2 -1.5 -7.5t-3 -12t-3 -12t-1.5 -6.5v-6v-3q0 -4 1.5 -17t3 -27.5t3 -27t1.5 -16.5q0 -2 0.5 -15.5t1 -30l1 -33.5
t0.5 -27q0 -6 -0.5 -21l-1 -31.5l-1 -31.5t-0.5 -21q-2 -5 -5.5 -19.5t-3.5 -18.5q0 -5 -0.5 -19t-0.5 -30t0.5 -29.5t0.5 -18.5q-5 -5 -12 -14.5t-7 -13.5t4.5 -16t4.5 -13q5 -25 5 -50.5t14 -48.5q2 -2 6.5 -7l9.5 -11t9 -11.5t4 -6.5q1 -3 4.5 -11.5t6.5 -18.5l5.5 -18
t2.5 -9q5 -7 15.5 -14t14.5 -9q7 0 24.5 -1.5t37.5 -3t37.5 -3t24.5 -1.5h16h15q2 0 13.5 1.5t24.5 3t24 3t13 1.5q2 2 7 2h12q14 0 30 -1t18 -1q4 2 15.5 6t15.5 4h23h26q2 0 13 -4t13 -6q2 0 11.5 1t17.5 1h7.5t4.5 -2q18 -2 29 -12.5t17 -25t8.5 -31.5t2.5 -31v-6
q-14 -17 -31 -26.5t-36 -14t-39.5 -6t-41.5 -1.5q-44 0 -87 3.5t-86 8t-86 8t-86 3.5h-67q-1 0 -6 -2l-11.5 -4.5t-12.5 -4.5t-8 -2q-20 0 -44 5.5t-44 16.5t-33.5 28.5t-13.5 41.5q0 52 5 104t5 105q0 46 -8 91.5t-11 90.5v28v69q0 4 -1.5 22.5t-3 39.5t-3 39.5t-2.5 23.5
v3v7q1 9 2 29.5t2 46l2 53.5t1.5 54t1.5 46t1 30q3 3 6 14t3 16v3v5q-2 3 -8.5 14.5t-10.5 15.5v308q2 2 6 12.5t4 15.5q0 3 -1.5 14.5t-3.5 24t-3.5 24t-1.5 14.5v173q0 1 -1.5 7t-3 13t-3 12.5l-1.5 5.5q0 1 -0.5 12t-0.5 25v28v22v18.5v26t0.5 25t0.5 16.5q14 18 29.5 26
t32 10.5t34.5 2.5t37 1q3 0 13.5 1.5l22 3t21 3t11.5 1.5h29h80q2 0 13 5t13 5q6 1 25 2.5t42.5 3t45.5 2.5t34 1h17h50q2 2 13.5 6t12.5 4h12h7q5 0 16.5 -1.5l23.5 -3l23.5 -3t16.5 -2.5z" />
    <glyph glyph-name="backslash" unicode="\" horiz-adv-x="589" 
d="M555 -445q-3 17 -7 24t-8 11.5l-9 10.5t-11 22v29q-2 14 -7.5 22.5t-12.5 15.5t-14.5 13.5t-13.5 17.5q-5 5 -8 15t-4.5 21t-1.5 22.5v19.5v25q-7 5 -13 16t-6 22l-19 36q-4 4 -10.5 14.5t-6.5 18.5q0 5 3.5 11t3.5 8q0 19 -4 31.5t-9.5 22t-12 16.5t-11.5 15
q-3 11 -5 29.5t-4.5 37.5t-6 36t-10.5 25l-6.5 5t-14.5 12l-14.5 13t-7.5 9l-7 40q0 2 -3.5 6t-8 7.5t-8 7t-4.5 3.5q-11 11 -11 32l2 43q0 16 -2 28t-8 24l-19 23.5l-24 30.5l-22 30t-13 23q-4 18 -4.5 36t-16.5 38q-9 14 -12.5 22.5t-5.5 16t-5.5 16.5t-12.5 25v28
l-40 116q-5 5 -10 12t-9 19v29t2 17q-38 47 -50 109v33q0 11 -1.5 17t-10.5 11l-20.5 27l-25.5 34l-25 35t-18 30q0 30 -0.5 39t-4.5 18q-10 13 -18.5 22.5t-15 18.5t-10.5 20t-4 28v53q-2 1 -5 6l-6 10.5t-5 10.5t-2 6v64q14 7 34 15t36 8q31 0 51 -14t39 -37q3 0 10 -21.5
t14.5 -49t13 -52.5t5.5 -32q11 -29 27.5 -56t27.5 -57l36.5 -114t41.5 -112q7 -18 16.5 -30l18 -23t14.5 -24t6 -32l2 -21q0 -2 4.5 -10.5l5.5 -10.5q12 -12 19.5 -33t13 -44.5l10.5 -46.5t11 -39q3 -16 10.5 -30.5t15.5 -28.5t15.5 -28.5t10.5 -31.5q0 -4 1 -11.5t6 -21.5
q11 -40 26 -83t36 -78q3 3 12 -16t22 -50l28 -69.5l29.5 -75l27 -66.5t21.5 -44q4 -11 7.5 -19.5t3.5 -24.5q0 -14 0.5 -21t2.5 -13q1 -1 6 -5.5l11.5 -10t11.5 -10.5t6 -7q0 -2 1 -9.5t2 -16.5t1.5 -17.5t0.5 -12.5q4 -14 13.5 -24t14.5 -19v-19q3 -20 12 -38.5l18.5 -37.5
t17 -38t7.5 -40q0 -3 -8 -15.5t-18.5 -26.5t-21 -25t-16.5 -11z" />
    <glyph glyph-name="bracketright" unicode="]" horiz-adv-x="915" 
d="M75 -471q-14 3 -16.5 12t-2.5 20v13q0 23 1.5 40.5t10.5 39.5q0 4 5 8t11.5 6t12 3.5t7.5 1.5q35 7 66.5 8.5t63.5 1.5h52q13 9 27 9h11q22 0 42 -5t41 -5h14t12 1q8 0 22 1.5l27.5 3t24 3t12.5 1.5q2 1 7.5 5.5t11.5 10.5t11.5 12.5t7.5 9.5q7 13 9 38.5t2 48.5v22
q0 47 -3 102.5t-8 96.5q0 3 -2.5 10t-6 15.5t-6.5 15t-4 7.5v16q0 12 2.5 19t16.5 14v67q0 2 1.5 8t4 12t4 11.5t1.5 6.5q0 3 -0.5 10.5t-0.5 17.5t-0.5 21t-0.5 21v18t2 9q0 2 2.5 8t5.5 12l6 11.5t5 6.5v6v5q0 1 -1.5 6.5t-4 12t-4 12t-1.5 7.5v41v16q0 2 -1.5 8l-3 12.5
t-2.5 12t-1 7.5v8v11q0 1 1 6.5t2.5 12t3 12t1.5 7.5v5v3q0 4 -1.5 17t-3 27.5t-2.5 27.5t-1 17q0 2 -0.5 15t-1.5 29.5t-1.5 33.5t-0.5 27q0 6 0.5 21t1.5 32t1.5 32t0.5 21q1 4 4.5 19t3.5 19q0 5 1 18.5t1 29.5t-1 30t-1 19q5 4 12 13.5t7 13.5q0 5 -4 16.5t-4 13.5
q-5 25 -5 50t-14 48q-2 1 -7 6.5t-9.5 12t-8.5 11.5t-5 7l-4 11.5t-6 18l-5.5 17.5t-3.5 10q-4 6 -14.5 13t-14.5 9q-7 0 -25 1.5l-37.5 3l-37.5 3t-25 1.5h-15h-16q-2 0 -13 -1.5t-24 -3t-24 -3t-13 -1.5q-2 -1 -7.5 -1h-11.5q-14 0 -30 0.5t-19 0.5q-4 -2 -15.5 -6
t-15.5 -4h-22h-26q-2 0 -13.5 4t-12.5 6q-3 0 -12.5 -0.5t-17.5 -0.5q-10 0 -12 1q-18 2 -29 12.5t-17 25.5t-8.5 32t-2.5 31v5q13 17 30.5 26.5t37 14.5t40 6t41.5 1q43 0 86.5 -3.5t86.5 -7.5t85.5 -7.5t85.5 -3.5h68l5.5 2t12 4l12.5 4t8 2q20 0 43.5 -5.5t44 -16.5
t34 -28.5t13.5 -41.5q0 -52 -5.5 -103.5t-5.5 -105.5q0 -46 8.5 -91t10.5 -91v-27v-70q1 -5 2 -22.5t2.5 -38.5t3 -39.5t3.5 -23.5v-4v-7q-1 -10 -2 -30t-2 -45.5l-2 -53.5l-2 -53.5t-2 -46t-1 -30.5q-2 -3 -5 -14t-3 -16v-3v-5q1 -3 7.5 -14t11.5 -16v-308q-3 -2 -7 -12.5
t-4 -14.5q0 -3 1.5 -14.5t4 -24.5t4 -24.5t1.5 -14.5v-173q0 -1 1 -7t2.5 -12.5t3 -12t1.5 -6.5q1 -2 1.5 -12.5t0.5 -24.5v-28v-22v-18.5v-26t-0.5 -25.5t-1.5 -16q-14 -18 -29 -25.5t-32 -10.5t-35 -3t-37 -1q-3 0 -13.5 -1.5l-21.5 -3t-20.5 -3t-11.5 -1.5h-30h-79
q-1 0 -5 -1.5t-8.5 -3.5t-8.5 -3.5l-4 -1.5q-6 -1 -25.5 -2.5t-42.5 -3t-45 -2.5t-34 -1h-18h-50q-2 -1 -13 -5.5t-13 -4.5h-12h-7q-5 1 -16.5 2.5l-23.5 3l-23 3t-16 1.5z" />
    <glyph glyph-name="asciicircum" unicode="^" horiz-adv-x="964" 
d="M473 988h-5q-14 -7 -25 -22t-20 -32t-16.5 -34.5t-14.5 -29.5q-2 -1 -6.5 -6.5l-9.5 -12l-9 -12t-5 -7.5q-8 -15 -12.5 -33.5t-10.5 -35t-16.5 -27.5t-32.5 -11q-10 0 -23 7.5t-10 21.5q3 18 11.5 33.5t19 31l20.5 31t16 32.5q8 24 14 51.5t13.5 55.5t17 54.5t23.5 49.5
q4 7 14 21.5l20.5 30l20 28.5l12.5 17t14 14.5t16 13.5q1 0 3 1q2 0 2.5 0.5t2.5 0.5t5 -1t6 -1q28 -7 43.5 -13t32.5 -25q1 -3 4.5 -10t5.5 -9q17 -61 30.5 -121l26.5 -121q3 -17 11 -37.5t8 -40.5v-9q0 -1 -1.5 -6.5t-3 -12t-2.5 -11.5t-1 -6v-7q0 -14 4 -28.5t4 -28.5
q0 -20 -6 -36.5t-21 -27.5q-3 3 -10.5 8.5l-15.5 11.5l-14.5 11t-8.5 7t-5.5 9t-4.5 12q-2 2 -5 9t-6 15l-5.5 14.5t-2.5 7.5q-2 2 -5 8l-6 12.5t-5.5 12.5t-2.5 7q-2 3 -5 17.5t-6 31l-5.5 30t-2.5 16.5q-3 9 -7.5 20t-11 22t-14 21.5t-16.5 16.5h-5z" />
    <glyph glyph-name="underscore" unicode="_" horiz-adv-x="966" 
d="M20 -206v45q0 13 1 32.5t7 38t19 32.5t37 16h67q26 5 50 12.5t56 7.5l73 -13q20 0 30.5 3.5t26.5 3.5q22 0 44 -4t43.5 -8.5t43 -8t42.5 -3.5l147 19l55 -9q11 0 17.5 3.5t17.5 7.5l17.5 6.5t22.5 2.5q31 0 58.5 -10t44.5 -30q6 -3 6 -9q0 -4 -1 -7t-2 -5q-2 -3 -3 -5
q0 -14 -1 -26.5t-4 -23.5l4 -45l-6 -28q-12 -11 -27.5 -18t-32.5 -10.5t-34.5 -5t-33.5 -1.5q-31 0 -70 4.5t-71 4.5q-189 0 -376 -9q-43 -1 -85 -8t-81 -7q-14 0 -30 4.5t-30.5 12.5t-26 17.5t-15.5 20.5z" />
    <glyph glyph-name="grave" unicode="`" horiz-adv-x="1071" 
d="M233 1381q0 19 8 35.5t21 28.5t30 19t35 7q22 0 41.5 -9t36 -23t31.5 -31.5l28 -33.5q2 -3 5 -6t5 -6q2 -2 7.5 -9t11.5 -16l11.5 -18t7.5 -14q1 -2 4 -7t6 -11.5l5.5 -12t3.5 -7.5q2 -2 5.5 -5t6.5 -6q11 -9 28.5 -21.5t26.5 -26.5q2 -1 7.5 -9l12 -18l12 -18.5
t6.5 -11.5q2 -2 8.5 -7t13 -11.5l12.5 -12t8 -7.5q4 -7 8 -22.5t7 -32t4.5 -32t1.5 -22.5q-10 0 -23.5 0.5t-28 2.5t-27.5 6.5t-22 12.5q0 3 -3.5 10.5t-3.5 8.5q-1 1 -5.5 3t-9.5 3.5t-10 2.5t-6 2q-2 1 -8.5 8l-14.5 15l-15 15t-10 8q-2 3 -13 6t-13 5q-13 8 -27.5 20.5
l-29 26l-28 26.5t-24.5 22q-4 4 -19.5 18.5l-33.5 31l-33.5 30.5t-19.5 17q-15 17 -26.5 35.5t-11.5 40.5z" />
    <glyph glyph-name="a" unicode="a" horiz-adv-x="895" 
d="M593 131q-1 1 -3 6.5l-4 11.5t-3.5 11t-1.5 6q-2 3 -2 8.5v12.5v12t2 9q-14 13 -16.5 23.5t-2.5 24.5v21q0 2 -2 6l-3 6q-3 2 -11.5 11t-13.5 11q-8 7 -20 9t-21 9h-9.5t-9.5 1q-7 -2 -16.5 -6.5t-11.5 -6.5l-10 -6l-49 6h-24q-13 0 -27 -5t-27.5 -13t-25 -18.5
t-18.5 -21.5q-2 -2 -4 -12t-2 -12q-2 -6 -6 -12.5t-4 -14.5l-2 -25l-7 -26l9 -46q0 -2 3 -5l7 -7q11 -11 11 -13q0 -1 3.5 -2t7.5 -2t8 -1.5t5 -0.5q6 0 16 -1t19.5 -5t16.5 -10.5t7 -18.5t-9 -23t-22 -15q-5 -1 -16 -3t-24 -5t-25 -5.5l-17 -3.5l-24 10l-145 -10
q-13 2 -22.5 4t-17 6t-13 11t-11.5 20q0 18 10.5 29.5t25.5 19.5t31 14.5t26 12.5q0 2 2.5 3.5t4.5 3.5q9 9 19.5 21t15.5 26q1 1 3 6t4 11t3.5 11t1.5 6q11 29 26 52.5t26 46.5q1 1 3 6t4 11t3.5 11t1.5 7l17 71q1 1 3 5.5t4 9.5l3.5 9t1.5 5l18 59q6 22 15.5 36.5
t18.5 34.5l5 29q2 4 4 13.5t3 10.5l11 35q0 4 1.5 11t2.5 15l2 15.5t1 10.5v76q0 3 2.5 9t5.5 12.5t7 12t9 8.5l34 12q3 0 9.5 7.5t8.5 9.5l34 16l26 25q17 0 28.5 -13.5t18.5 -27.5q1 -5 4.5 -16t7 -23.5t7 -23.5t3.5 -15v-29q2 -2 4 -6l3 -6q14 -23 24 -51.5t18 -57.5
q2 -20 2.5 -23t2.5 -3q9 0 13.5 -8.5t9.5 -19.5l12 -33q0 -3 3 -9.5l7 -14.5l7.5 -15.5t4.5 -10.5q1 -1 7 -9q3 -4 5 -7q1 -2 4 -10.5t6 -18.5l5.5 -18.5t2.5 -10.5q5 -20 11.5 -40.5t17.5 -37.5q0 -3 8 -12.5t9 -12.5l6 -27q4 -17 8 -28t5 -22q0 -3 2.5 -12l5.5 -19.5
l5.5 -19t2.5 -10.5q2 -11 10 -24t16 -16q1 -1 7.5 -4l14 -6.5l14 -6.5t7.5 -3q12 -8 22.5 -11.5t17.5 -8t11 -12.5t4 -24q0 -15 -16 -25.5t-37.5 -17t-43 -9.5t-31.5 -3q-26 0 -47.5 7t-50.5 7l-78 -9q-10 0 -25 1.5t-29.5 6t-25 12.5t-10.5 22q0 19 17 26.5t37.5 13.5
t37.5 14.5t17 29.5v5zM403 389q1 0 7.5 -1.5l15 -3.5l17 -4t13.5 -3l23 -5q1 1 8 2t15 3l20 4l-19 76q-2 9 -3.5 24.5t-1.5 20.5q0 13 -2.5 22.5t-6.5 18.5t-9 18.5t-10 21.5q-2 7 -13.5 16t-19.5 17q-3 3 -10 3q-9 0 -18 -7t-20 -7q-9 0 -18.5 -15t-18 -34.5t-14 -39
t-6.5 -28.5v-76q2 -3 6 -12t6 -11t4 -4.5t6 -2.5q2 0 9.5 1t15.5 2.5t15 2.5t9 1z" />
    <glyph glyph-name="b" unicode="b" horiz-adv-x="858" 
d="M78 38q0 26 17.5 39t43.5 25q3 1 12 5.5t19 9l19 8.5t12 6q2 5 7 15.5t5 14.5l-5 48l5 63v48q1 2 3 5q1 2 2 3.5t2 3.5l5 31v54q0 1 1.5 6.5t4 13t4.5 15t2 12.5q0 18 -9.5 35t-9.5 37q0 12 7 26q-1 3 -3.5 11.5l-5.5 18.5t-5 20t-3 16q0 4 1 14.5t6 33.5q0 21 -15.5 34
t-34.5 24.5t-34.5 26t-15.5 38.5q0 15 11 24.5t27 14.5t32.5 7.5t27.5 3.5q75 6 137 6q54 0 107 -6q2 0 9 -0.5t15.5 -1.5l16.5 -2t11 -2q22 -3 41.5 -10.5l39.5 -14.5q17 -5 31 -8.5t26.5 -9.5t23.5 -16t23 -28q5 -9 14.5 -23.5t9.5 -24.5l-7 -59q0 -2 2 -7.5l4.5 -12.5
l4.5 -13l3 -9q0 -8 -8 -18t-11 -15l-21 -29q0 -2 -1.5 -9.5t-3.5 -7.5q0 -2 -3.5 -5.5t-8 -7.5t-8 -7.5l-4.5 -4.5l-1.5 -4t-3.5 -8.5t-4 -8.5t-3 -5q-8 -13 -15.5 -19t-7.5 -24q0 -10 5 -16t12 -10.5t15.5 -7.5t14.5 -7q16 -9 25 -14.5t16 -10.5t13 -13t15 -23
q0 -2 5.5 -9.5t6.5 -9.5v-17q0 -2 5 -9.5t8 -9.5q0 -1 2.5 -3.5t6 -5.5t6 -6t2.5 -4q0 -2 -2.5 -8t-4.5 -16q2 -2 4.5 -13t2.5 -19q-1 0 -3.5 -3.5l-5.5 -7.5t-5.5 -8t-2.5 -5v-22q-3 -21 -10.5 -42t-19.5 -38l-26 -12q-39 -22 -82.5 -28.5t-86.5 -14.5q-23 -4 -42 -14
t-40 -10l-114 6q-1 0 -5.5 -1t-9.5 -2l-10 -2t-6 -1h-73q-5 -5 -9 -5.5t-15 -0.5q-6 1 -19.5 2.5t-28 3.5t-27.5 4t-17 2q-15 2 -29 9.5t-14 25.5zM390 131q3 -6 18.5 -12.5t34.5 -12t37.5 -8.5t26.5 -3q23 0 46.5 12.5t31.5 36.5q1 1 1.5 7t1.5 13.5t1.5 13.5t0.5 7
q2 2 7 10.5t5 17.5q0 11 -5 20t-7 20q0 2 -0.5 11.5t-1.5 21t-1.5 21.5t-1.5 13q-2 14 -8 29t-23 19q-2 1 -10 2t-17.5 2t-17.5 1.5t-10 0.5q-2 1 -18 8t-24 11q-13 5 -25.5 14.5t-26.5 9.5q-11 0 -13 -2.5t-2 -7.5t0.5 -10.5t0.5 -12.5l-1 -10q-2 -2 -7.5 -9t-5.5 -9v-31
q0 -1 -2.5 -8.5t-2.5 -10.5q-1 -4 -1 -8v-11v-13q0 -4 1 -8q0 -4 2.5 -14t2.5 -12v-24q0 -1 1.5 -6.5t4 -12t4.5 -12.5t3 -7v-47zM383 564q0 -20 8 -37.5t31 -17.5q17 0 28 10t24 14q3 1 11 3t17 3.5l18.5 3t16.5 2.5q14 12 14 21t3 26q0 2 2.5 9.5t2.5 9.5q0 1 1 2
q0 1 0.5 2t0.5 3q0 3 -3.5 16l-7.5 27.5t-8 26.5t-5 14q-2 2 -7 6.5l-10 9l-9.5 8.5t-6.5 6q0 2 -5.5 4.5t-6.5 2.5q-2 1 -11.5 9t-11.5 8h-19q-22 0 -33.5 -6.5t-17 -18.5t-6.5 -28t-3 -35q-1 -4 -2 -16.5t-2 -27.5t-1.5 -29t-0.5 -21q-1 0 -1 -4v-6z" />
    <glyph glyph-name="c" unicode="c" horiz-adv-x="999" 
d="M392 18q-11 0 -16 -1.5t-19 -3.5l-69 31l-30 24l-36 17q-10 7 -16.5 15t-11.5 17t-11 18t-14 18q-2 4 -6 17t-9 27t-10 26.5l-7 17.5q0 3 -4.5 12l-9.5 19l-9.5 19t-5.5 12q-2 2 -3.5 15.5t-3.5 22.5q-7 25 -12 50.5t-5 51.5l3 42q0 16 -0.5 24t-2.5 21q-2 7 -2 14v15v17
t2 20q1 1 4 4.5t6 8l5.5 8t3.5 5.5q1 0 2.5 4.5t3.5 9.5t3.5 9.5t2.5 5.5q0 3 8.5 11t13.5 19q1 3 6 13.5l10.5 22.5l10 22.5t5.5 13.5q0 1 1 2.5t2 3.5t3 5l1 1l2 2l3 3q1 5 8 15.5t7 14.5q23 0 43.5 12.5t43.5 30.5q2 1 7 7.5l10.5 13.5l10.5 13.5t6 8.5q2 1 7 6l5 5
q5 0 13 -1t29 -6q8 0 15.5 4t16 9t18.5 9t23 4h10.5t8.5 -2q1 0 5.5 -1t9.5 -1.5t9 -1.5t5 -1t7 1.5t12.5 3.5t12 4t6.5 3q20 5 32.5 6t33.5 1q5 0 16.5 -1t12.5 -1q3 -2 6 -3l6 -2h35q2 0 6 -2.5t6 -4.5h26q2 1 9 2t15 2t14.5 2t8.5 1q0 -1 4.5 -3t10.5 -5t12 -5.5t9 -3.5
q0 -2 2.5 -4t4.5 -3q0 -2 4.5 -10t5.5 -8q7 -1 17 -6.5t15 -18.5q0 -16 -6 -28q-2 -9 -5 -19t-3 -24q2 -2 9.5 -12t9.5 -13q4 -9 5.5 -19.5t1.5 -21.5q0 -8 -2 -22t-6 -27.5t-11.5 -23.5t-17.5 -10q-11 0 -23.5 11t-25.5 28.5t-27 39l-27 41.5t-25 36t-22 24q-4 2 -20.5 4.5
t-33.5 2.5q-12 0 -23.5 5l-23 10t-23 9.5t-23.5 4.5l-23 -19q-10 -8 -23 -12.5t-27 -7.5t-27 -6.5t-23 -8.5q-25 -17 -45.5 -38t-48.5 -34v-66q-15 -17 -19.5 -31t-12.5 -36q-1 -2 -3 -6.5t-4.5 -9.5t-4 -9t-1.5 -5q0 -2 3 -12t4 -12l-12 -81q0 -14 4 -24l8 -21
q8 -34 14 -65t28 -60q1 -2 7.5 -8.5l14 -14l14 -14t7.5 -8.5q1 -1 1.5 -6.5t1.5 -12.5t1.5 -13.5t0.5 -8.5q2 -3 11 -11.5l14 -13.5l5.5 -2.5l11.5 -5t11 -5.5t6 -4q10 -7 19.5 -16.5l19 -18.5t20 -16t24.5 -8h38l25 -14h17l69 14l38 -8q16 5 32.5 9.5t28.5 10.5q1 0 5.5 8
t13.5 39q0 2 1 8t1.5 13t1.5 13t1 8q5 23 14 45.5t17 45.5q4 14 5 23t4 15.5t10 11t21 9.5q1 1 6 3l10.5 4l10 3.5t6.5 1.5h1q6 0 15 -4.5t17 -10.5t14 -13t6 -13v-90q4 -7 4.5 -16t0.5 -26q0 -25 -17 -48t-41 -41.5t-51 -33t-46 -22.5q-2 -2 -12.5 -3.5t-11.5 -1.5
q-20 -8 -38.5 -22.5t-41.5 -21.5q-2 0 -10 -1t-18.5 -1.5t-20.5 -1.5t-15 -1h-12.5t-21 -0.5t-23.5 -0.5h-19h-13.5t-17 0.5t-14.5 0.5h-7q-20 4 -38.5 9t-34.5 15z" />
    <glyph glyph-name="d" unicode="d" horiz-adv-x="1073" 
d="M71 43q0 7 2.5 21t2.5 16l11 5.5l13 6.5q21 2 38 7t30 10q4 2 10 7.5t11.5 12t9.5 12t5 6.5q0 1 1.5 9l3.5 19t4 23.5t3 21.5q0 18 -6 33t-6 32q0 10 1.5 25t4.5 31t7.5 30.5t10.5 24.5v92q0 6 -4 12t-8.5 12t-8 12.5t-3.5 13.5l12 74q0 11 -4 33t-10 45t-13.5 43
t-13.5 28l-31 31q-6 4 -14 8.5t-14.5 9.5t-11.5 11.5t-5 15.5q0 8 2 10.5t11 5.5q23 4 47 6.5t47 2.5l41 -2q2 0 8.5 2.5t9.5 2.5l24 -5q22 4 44.5 5.5t45.5 1.5q25 0 49.5 -1.5t48.5 -5.5l20 5q29 -8 53.5 -11t49.5 -8q6 -1 17.5 -3.5t23 -5.5l21 -5.5t11.5 -2.5
q2 -2 9.5 -7t9.5 -5q2 -2 7 -2h7.5t13.5 2q9 0 20 -7q1 -2 7.5 -7t14 -11.5l14 -12t8.5 -6.5q11 -9 26.5 -9.5t26.5 -7.5q16 -9 35 -27t26 -34q2 -2 3.5 -12t3.5 -12q1 -3 5 -8.5t9 -11.5l9.5 -11t7.5 -7q1 -1 6 -4.5t11.5 -7.5l12 -7.5t6.5 -4.5q2 -2 3.5 -12.5t1.5 -11.5
l4 -8t6 -13l6 -13.5t3 -7.5l-12 -154q-11 -11 -14 -25t-3.5 -30t-2.5 -33t-11 -33q-20 -38 -42 -68t-55 -60l-19 -12q-1 -1 -6 -6.5t-11 -11.5l-11.5 -11.5t-7.5 -6.5q-12 -9 -29.5 -10t-31.5 -9q-2 -2 -16.5 -11t-26.5 -14q-2 -1 -12 -3t-12 -2q-2 -1 -10.5 -6t-19 -10
l-19.5 -9.5t-12 -5.5h-67q-2 0 -7.5 -1.5t-12 -3.5l-13 -4t-10.5 -3q-3 2 -14.5 4t-15.5 6l-304 -10q-2 1 -10 3.5t-17.5 6t-17.5 6l-11 3.5q-4 1 -11 1t-13.5 1t-11.5 4t-5 11v7zM464 80q40 0 81 10l80 19q2 2 14 6t17 8q3 2 11 10l17.5 17.5l18 18.5l13.5 14q3 3 9 10
l12.5 14.5l12.5 14.5t8 10q1 0 3 4.5t4 7.5q0 1 2 5.5t4 9.5t3.5 9.5t2.5 4.5q5 9 12 17.5t7 19.5l-7 41q0 23 8.5 46.5t10.5 47.5v36q0 29 -8 56l-16 55q-3 9 -13 20t-21.5 22.5l-22.5 22.5t-18 19q-11 17 -18 29t-30 20q-2 0 -12.5 2.5t-11.5 4.5q-2 0 -14 8.5t-23 15.5
q-42 14 -83 25t-93 11q-5 0 -8 -1t-11 -6q-5 -3 -12 -13t-14 -22t-12 -23.5t-5 -17.5q0 -17 6.5 -31t6.5 -33v-9.5t-1 -7.5q-5 -56 -7 -108l-4 -100l5 -19q3 -5 3.5 -9t2.5 -8q1 -5 1 -16v-17v-13t-1 -9q0 -2 -5.5 -12t-5.5 -13l18 -36q0 -2 1 -12t2 -22.5l2 -25t2 -19.5
q2 -11 3.5 -21.5t1.5 -22.5q0 -16 -5 -36q1 -7 5.5 -13t11.5 -11z" />
    <glyph glyph-name="e" unicode="e" horiz-adv-x="939" 
d="M89 43q0 21 10 33.5t24.5 20.5t31.5 15.5t31.5 18.5t24.5 29t10 48v15.5t-2 15.5q-3 18 -3 38q0 16 3 33q2 8 2 14.5v14.5q0 11 -1 20t-3 20l-2 23t-1 24q0 11 1 21.5l2 21.5l4 21.5t2 21.5q0 18 -3.5 36.5t-7.5 36.5q-4 15 -6.5 31.5t-2.5 32.5q0 6 1 11.5t3 10.5
q3 10 3 21q0 1 -0.5 1.5t-0.5 2.5v3q-1 3 -3.5 8.5t-5.5 11l-5.5 10.5t-3.5 6l-14 14.5l-21 22l-21.5 21.5t-14.5 13q-1 2 -3.5 6t-2.5 6q0 20 15 37t31 22q7 3 18.5 7t23 7.5t20.5 6.5t11 3t10 1t12 1q14 0 26.5 -3l25.5 -6q8 -1 17 -3t18 -2t16 1t15 3l14 2t15 1
q19 0 35 -6t33 -6q1 0 7 -0.5t13.5 -0.5t15 -0.5t12.5 -0.5q48 0 95.5 6t95.5 8q5 4 8.5 4.5t10.5 0.5q26 -11 39 -29t19 -42q0 -2 0.5 -8t1.5 -13t2 -13t2 -7q0 -1 1 -3.5t2 -11t2 -23.5t2 -40q0 -13 -13.5 -21t-24.5 -8t-18 2t-13 6t-12 9.5t-15 11.5q-1 0 -5.5 2.5
t-6.5 4.5q-1 0 -9 1.5t-10 3.5q-20 8 -31.5 22.5t-27.5 31.5q-5 0 -15.5 0.5t-23 1.5t-23.5 2t-15 3q-2 0 -12 5t-13 5q-1 2 -11.5 2h-15.5q-20 0 -34 -7t-24 -19t-16.5 -27.5t-10.5 -31.5q0 -2 -2.5 -12t-4.5 -14q0 -2 1.5 -5.5t5.5 -22.5q0 -31 -8.5 -61.5t-8.5 -62.5
q0 -9 6 -14t14.5 -7t18 -2.5t16.5 -0.5h23q5 0 13.5 1l16.5 2t14.5 2t6.5 2q1 0 6 3.5t10.5 8l11.5 9.5t9 8t7.5 7t9 8.5t8 8.5t4.5 5q9 12 9.5 26t2 25.5t8.5 19t29 7.5q29 0 41 -18t12 -46q0 -17 -4 -27t-8.5 -18t-8 -17t-3.5 -23q0 -13 5 -21.5t7 -19.5l5 -66
q1 -1 2.5 -6l3.5 -11.5l4 -13t2 -10.5q-1 -5 -1.5 -12t-1.5 -14l-2 -16q-1 -3 -5 -7.5t-9.5 -9t-11.5 -8.5t-10 -4t-10 0.5t-7 4.5q-2 2 -4 12t-2 12q-5 9 -13 22t-18 27.5t-22 28.5t-24 24q-11 8 -23.5 9.5t-20.5 1.5l-39 -13q-2 0 -9.5 3t-10.5 3h-4q-2 0 -3 0.5t-3 0.5
q-5 0 -13 -6t-15.5 -14.5t-13.5 -17.5t-6 -15q0 -2 -1 -12.5t-1 -17.5v-6t1 -8q0 -4 1 -10q0 -8 3 -28.5t7 -43l7.5 -43t4.5 -28.5q14 -15 20 -27.5t11.5 -22.5t16 -15.5t33.5 -5.5q25 0 49.5 5t49.5 7h24q2 0 11.5 5t11.5 7l24 5q4 2 10.5 3.5t6.5 3.5q3 2 15 11.5t16 10.5
q10 8 21 9.5t19 9.5q12 10 23.5 22.5t23.5 23.5t26.5 18t32.5 7h21q8 -5 10 -14t2 -18q0 -46 -25 -87q0 -1 -3.5 -6l-8 -11t-8 -11.5t-4.5 -7.5q-1 -1 -2 -6t-1.5 -11t-1.5 -11.5t-2 -6.5q0 -2 -1.5 -6t-3.5 -6q-2 -3 -7.5 -9t-12.5 -12.5l-13 -12.5l-8 -8h-9q-18 0 -36 -3
q-21 -3 -42 -3t-38 6.5t-42 6.5q-5 0 -16 -0.5t-13 -0.5l-47 -7q-22 -4 -45 -4.5t-46 -0.5h-73q-16 0 -28 3t-26 3q-10 0 -19.5 -6t-18.5 -6l-55 12q-1 0 -8 -1.5l-16 -3.5t-19 -4t-16 -3q-12 0 -25.5 3t-25 9.5t-19.5 16t-8 23.5z" />
    <glyph glyph-name="f" unicode="f" horiz-adv-x="848" 
d="M86 45q0 17 7.5 24.5t19 11.5t24 7.5t23.5 11.5l9 9l12.5 13l12 13t7.5 9q2 0 4.5 7t2.5 12q1 3 2 9l2 12.5t2 12t1 7.5v61q0 1 2 12.5t4 18.5q0 2 2.5 12t3.5 12v116q5 8 11.5 21t6.5 24v3q-3 18 -4.5 35t-4 34t-7.5 33t-14 32v110q-3 2 -6 5q-2 2 -4 3.5t-4 3.5
q-11 9 -29.5 20.5t-36 25.5t-30.5 30t-13 33q0 22 20 25l84 5q2 2 9.5 4.5t9.5 2.5h21l49 -7q5 0 16.5 6l15.5 8l165 -7q9 0 16.5 3.5t17.5 3.5q16 0 27.5 -3.5t31.5 -3.5q27 0 52.5 7t51.5 7q21 0 43 -2.5l40 -4.5q8 -2 15.5 -8t13.5 -15t10 -19t4 -19q0 -7 -1 -13t-6 -6
l-12 -36q3 -4 7.5 -18t4.5 -19q2 -1 2 -3v-3q0 -11 -14.5 -19.5t-23.5 -10.5q-2 1 -5 2q-6 2 -7 3l-17 19l-37 18q-1 1 -5.5 6.5t-6.5 5.5q-42 23 -84.5 27t-90.5 4h-64q-2 -2 -6.5 -6t-9 -9t-9 -9.5l-6.5 -6.5l-2 -8q-2 -8 -3 -10l-5 -36q-1 -1 -3.5 -4.5t-6 -7.5t-6 -7.5
t-3.5 -4.5v-7l7 -35q0 -9 -2 -13.5t-10 -12.5v-84q0 -1 4 -5.5l9.5 -10.5l11 -12t9.5 -10q7 -5 11.5 -6t11.5 -1l64 14h7l10 -7h42q9 0 16.5 1t15.5 6v3q0 8 2 21t4 17q0 2 3 6.5t6 10t6 9.5t4 5q4 7 7 16t7.5 16.5t10.5 12.5t16 5q26 0 41 -21t15 -46v-19l-6 -19v-42
l-7 -24v-38l-5 -48q-1 -5 -4.5 -12t-8.5 -14t-11 -11.5t-12 -4.5q-16 0 -24 11.5t-13.5 25t-12.5 25t-21 11.5l-64 -7h-31q-24 21 -50 21q-8 0 -17.5 -1t-17.5 -6l-8 -8t-9.5 -10l-8 -9t-3.5 -5v-133l5 -12v-43q0 -3 6 -13t6 -11q0 -3 2.5 -13t4.5 -12q1 -2 2 -3l3 -3
q2 -2 6.5 -5t8.5 -6q4 -4 9 -7q1 0 7.5 -1t14 -2t14 -2t8.5 -2q1 0 11.5 -5t12.5 -7q7 -3 13.5 -3.5t12.5 -2t11.5 -4.5t10.5 -9q3 -2 7.5 -11t4.5 -13q-1 -3 -2 -5l-3 -5q-14 -19 -34.5 -25.5t-43.5 -6.5h-5.5t-24.5 1t-61 2t-115 4q-18 0 -35 -6t-36 -7q-9 -2 -18 -2h-18
q-13 0 -25.5 0.5t-26.5 4.5q-11 11 -19 21.5t-8 23.5z" />
    <glyph glyph-name="g" unicode="g" horiz-adv-x="1016" 
d="M441 -17l-18 7l-62 12q-22 4 -42 13t-43 16q-13 5 -27.5 8t-25.5 11q-1 1 -2 1.5t-2 1.5q-2 1 -3 2l-43 56q-1 2 -4 7t-7 11l-8 11.5t-6 8.5q-2 2 -3 4q-2 4 -2 6q-9 23 -20.5 43.5t-22.5 43.5q-2 2 -3.5 8.5t-1.5 8.5q-5 38 -9.5 79t-4.5 80q0 38 7 73.5t19 71.5
q0 3 1.5 13.5t3.5 12.5q1 1 4.5 6.5t8 11.5l8.5 11t5 6q0 2 2 7t3 7q14 39 33.5 69t51.5 59l24 17l31 31l12 18q10 11 23 12.5t26 6.5q2 0 6 2.5t6 2.5l19 14q2 0 11 0.5t19.5 1t19.5 1.5t11 2q1 0 16.5 7l26.5 12q2 0 5.5 1.5t4.5 3.5q4 -2 14.5 -2h22.5h22t16 2q1 0 5.5 2
t9.5 4t9 4t5 2l74 12h13l41 -12q3 0 13 -6t11 -6h61q2 0 6.5 -1.5t7.5 -3.5q19 -12 35.5 -23.5t28.5 -26t19 -32.5t7 -44v-16l-6 -17q0 -2 -1 -10t-1.5 -17.5t-1.5 -18t-2 -10.5l-4 -4.5t-10 -10.5l-12.5 -12t-10.5 -9q-5 -4 -8.5 -5.5t-8.5 -1.5q-8 0 -14 4t-10 8
q-20 24 -36.5 48t-35.5 45.5t-41 38.5t-52 27q-3 1 -9.5 2.5t-14 3.5l-14.5 4t-10 2h-14q-6 0 -22.5 -2.5l-34.5 -5t-34.5 -5.5t-22.5 -4q-3 -1 -10.5 -4.5l-15.5 -7t-14.5 -7.5t-9.5 -7q-2 -1 -9.5 -8t-15.5 -15.5l-15 -15.5l-9 -9q-2 -1 -5 -2l-4 -2t-3 -1
q-32 -20 -58 -51t-44 -68.5t-28 -79t-10 -82.5q0 -17 0.5 -36.5t4 -38.5t10.5 -36t21 -29l25 -91q2 -9 8.5 -15.5t14.5 -11t16.5 -8t15.5 -7.5q3 -2 9.5 -12l14 -22.5l14.5 -24t10 -15.5q9 -12 22 -12.5t27 -6.5q1 0 4.5 -2.5l7.5 -5.5t7.5 -6t4.5 -4q22 -14 43 -19t47 -5
h21q1 0 5.5 2t9.5 4t9.5 4t6.5 2q2 2 12 3.5t12 1.5q22 7 31 17t12.5 22t7 27t15.5 33l7 140q0 9 -10 14.5t-25 9.5t-32.5 8t-32.5 11t-25 17.5t-10 26.5q0 6 2.5 9t11.5 8q0 1 5.5 3.5t12.5 5l13.5 5t9.5 3.5h2q17 0 32.5 -6t31.5 -6q2 0 4 1q1 0 3 1l103 8t104 4l30 -2
q2 0 5.5 -7t8.5 -33q0 -10 -11.5 -19.5l-26 -20.5t-26 -25.5t-11.5 -34.5q0 -12 6 -20.5t6 -17.5q0 -13 -6 -21t-6 -24l19 -80q0 -11 -2 -18.5t-5.5 -14t-9.5 -13t-14 -16.5l-3.5 -3.5t-3.5 -1.5q0 -1 -4.5 -2t-9.5 -2t-9.5 -2t-5.5 -1q-17 -5 -30 -16.5t-38 -19.5
q-1 -1 -8 -2t-15.5 -1.5t-15.5 -1.5t-9 -2q-10 -2 -20.5 -7l-21 -10.5t-20.5 -9.5t-19 -4h-10q-4 0 -6 1l-24 13h-36q-3 0 -10 1.5t-10 3.5h-91z" />
    <glyph glyph-name="h" unicode="h" horiz-adv-x="1189" 
d="M327 -19q-23 0 -42 7t-40 7l-57 -14q-20 0 -39.5 1.5t-38.5 5.5q-13 2 -15 14t-2 26q0 15 13 22.5t30 12.5t33 11t21 18l12 41q1 3 4.5 10l8 15.5l8 15.5t3.5 9q5 12 6 23t1 22v59q-1 14 -6.5 28.5t-5.5 30.5q0 9 3 13.5t6.5 8t6.5 7t3 9.5q0 8 -3 14.5l-6.5 13.5
t-6.5 14t-3 15l5 28l-5 34l12 38l-7 94q0 11 3.5 20.5t3.5 20.5q0 16 -5 30t-7 31q-2 0 -6.5 1t-9.5 2t-9.5 2t-5.5 2q-1 0 -5.5 1.5l-10 3.5t-10 4t-5.5 3q-13 4 -29 7.5t-29.5 9.5t-22.5 16.5t-9 28.5q0 9 0.5 18.5t3.5 18.5t9 15t16 7q2 0 11.5 1t21.5 2l23.5 2t18.5 2
h12q11 0 19.5 -3.5t21.5 -3.5h15t12 1l12.5 2t16.5 4l17 5l33 -7q11 0 18 3.5t16 3.5q14 0 27 -8t29 -11q18 -1 37 -1t35 -4.5t26.5 -16.5t10.5 -37q0 -8 -7 -15.5t-16 -13.5t-18.5 -11.5t-14.5 -9.5q-1 -2 -11 -12t-13 -12h-3q-9 0 -15.5 3.5t-14.5 3.5h-3q-9 -5 -10.5 -19
t-1.5 -19v-73q0 -1 -1 -7t-2 -13.5t-2 -13.5t-2 -7v-38q0 -11 0.5 -23.5t3.5 -23.5t9 -18.5t18 -7.5l87 7q14 0 23.5 -3.5t29.5 -3.5h16q9 0 16 1t18 6q2 0 10 5t16 7q10 0 17.5 -3t15 -6.5t15.5 -6.5t20 -3h27q1 0 6 1t10 2.5t9 2.5t5 1q10 1 20.5 1t19.5 3t15 10.5t7 21.5
v104q0 2 -3.5 16.5t-3.5 23.5q0 13 7 26t7 33q0 4 -1 6t-6 4l-62 31q-2 0 -15 2t-15 3l-4.5 3.5t-10.5 9l-12 10.5t-9 8q-7 5 -13 11.5t-6 14.5v4q3 10 10.5 20t17 18t20.5 13.5t21 5.5q2 0 4 -0.5t5 -0.5q3 -1 7 -1q2 0 9.5 -2.5t9.5 -2.5h67q3 -1 14.5 -2t25 -2t25.5 -2
t15 -1h95l25 -2t24 -5t18 -12.5t7 -23.5q0 -16 -5.5 -23t-16.5 -13l-9 -6q-1 -1 -8 -6.5l-15.5 -12l-15.5 -11.5t-9 -6q-6 -5 -13.5 -7t-14 -5t-10.5 -8.5t-4 -15.5q0 -9 3 -17t3 -21q-1 -3 -2 -8.5l-2 -11t-1.5 -10t-0.5 -5.5q0 -2 -3.5 -7t-3.5 -7v-60q0 -2 -2.5 -11
t-4.5 -17q-2 -16 -3.5 -26t-1.5 -26v-19q0 -2 2.5 -12t2.5 -12v-114q2 -3 4.5 -13t2.5 -12q2 -14 2 -26v-26q0 -17 -1.5 -35.5t-12.5 -52.5l3 -6l2 -6q3 -4 5 -10.5t2 -8.5l7 -31q2 -1 9 -4t14.5 -7t15 -7.5t10.5 -5.5l19.5 -7.5t22 -11t18 -15.5t7.5 -22q0 -2 -1 -5t-6 -5
h-12q-14 0 -25 -2.5t-20.5 -5.5t-20.5 -6t-25 -5h-25l-19 -5h-188q-8 0 -18.5 3t-20 8.5t-16 13t-6.5 16.5q0 14 11 29.5t25 19.5q1 0 7 1l12.5 2t11.5 2t6 2q1 0 5 4t9 8.5t9.5 10t7.5 8.5q9 9 9 24l-2 24l5 69q0 11 -2.5 19.5t-2.5 17.5q0 10 3.5 20.5t8 21.5l8.5 21.5
t4 19.5q0 11 -12 19.5t-21 13.5l-46 3l-111 -7q-7 0 -13 1t-10 6h-79l-104 -12q-3 -1 -8 -3.5l-11 -5.5t-11 -6t-8 -4q-4 -2 -4.5 -4.5t-0.5 -7.5q0 -14 3.5 -24.5t3.5 -30.5l-7 -73v-24q0 -2 2 -8l4.5 -13t4 -13.5t1.5 -7.5v-31q1 -1 3 -6t5 -10.5l6 -11t5 -8.5t6 -7.5
t6 -4.5l66 -13q4 0 10.5 -7t8.5 -12v-5q0 -2 0.5 -4.5t0.5 -3.5q0 -14 -7.5 -25t-19.5 -19t-26.5 -12.5t-27.5 -4.5l-41 14z" />
    <glyph glyph-name="i" unicode="i" horiz-adv-x="625" 
d="M69 29q0 20 13 27.5t32 10.5t39 5t34 11q1 1 2 3q3 3 3 4q3 4 8.5 13l11 18.5l10.5 18t6 11.5q5 8 6 16.5t1 26.5q0 11 -2 18t-4 13l-4 12.5t-2 15.5l19 100q0 4 -1.5 13.5l-5.5 33.5v48q-2 3 -7 16.5t-5 21.5q8 25 10 49.5t2 50.5v33l-7 31q-2 12 -2 24.5v24.5v23t2 25
q-2 11 -13 21.5l-16 15.5q-20 14 -42.5 15t-42 3t-32.5 12.5t-13 43.5q0 20 17 26.5t33 8.5h57q46 0 90.5 1t89.5 6q7 5 17 6t21 1h66q2 0 7.5 -1t11.5 -2.5t11 -2.5t6 -1q14 0 29 -2.5t15 -10.5q1 -5 2 -9.5t1 -9.5q0 -6 -1 -12.5t-2 -11.5q-2 -5 -9.5 -9.5t-16.5 -8.5
t-18 -6.5t-12 -4.5l-36 -31q-8 -5 -20 -7t-17 -12l-5.5 -11t-6.5 -14q-1 -2 -3 -10q-1 -4 -2 -7v-92q0 -2 2 -10.5t3 -20.5q0 -2 -2 -9l-4.5 -15t-4 -15t-1.5 -9v-85l-7 -114l19 -88v-30q0 -2 -2.5 -13t-2.5 -16q0 -3 3.5 -10.5t8 -15.5l8.5 -15t4 -9q3 -9 4.5 -21.5t5 -24
t11 -19.5t21.5 -8q11 0 19 3.5t17 3.5q7 0 18.5 -2t22.5 -6.5t19 -12t8 -17.5q0 -16 -7.5 -26.5t-19 -17t-25.5 -9t-26 -2.5l-109 6h-28q-2 0 -12 -3t-12 -3h-102l-43 -6h-31q-11 0 -24.5 0.5t-26 4t-21 11.5t-8.5 22z" />
    <glyph glyph-name="j" unicode="j" horiz-adv-x="612" 
d="M-71 -467q0 7 0.5 16.5t0.5 11.5q1 1 5.5 6.5l9.5 11.5t9 12t6 8q13 18 24 28t38 10q29 0 57.5 -7.5t54.5 -20.5q1 -1 5 -4l8.5 -6.5l8.5 -6.5t4 -4h11q11 0 19 4t12 17l31 182v29q0 10 -0.5 34l-1 50t-1.5 48.5t-2 30.5q0 3 -1 10t-2.5 15t-2.5 14.5t-1 8.5t-1.5 8.5
t-1.5 10.5v5.5t1 6.5q1 4 2 7q0 3 3.5 15t3.5 15q2 2 2 10.5v20.5t-0.5 25.5t-0.5 25.5t-0.5 21.5t-0.5 12.5q0 1 1.5 9l3.5 18t4 18.5t3 11.5v10q0 17 -5 31.5t-10.5 28.5t-10.5 28.5t-5 32.5q0 32 6 61t6 58q0 53 -3.5 99t-8.5 102q-2 3 -5.5 11.5t-8 17.5t-9 17t-7.5 11
q-2 8 -6.5 9.5t-12.5 1.5t-11 -1.5t-6 -4t-8.5 -4t-17.5 -1.5q-27 0 -44.5 19.5t-17.5 46.5v12q13 21 33 35t43 14h21q4 -1 21 -2.5t36.5 -3.5t36 -3.5t20.5 -1.5h234q7 -3 12 -7q5 -3 9 -6.5t4 -5.5q9 -15 9 -33q0 -16 -9 -34q-2 -6 -8.5 -11t-14 -9t-14 -6.5t-8.5 -3.5
h-36h-12q-2 0 -6 -3.5t-6 -4.5q-5 -12 -8 -26t-4.5 -28t-2.5 -27.5t-4 -24.5q0 -1 -1 -5.5t-2.5 -9.5t-2.5 -9.5l-1 -4.5q-1 -2 -2.5 -11.5l-3.5 -21.5t-3.5 -24.5t-2.5 -18.5v-7v-4q1 -1 4 -5.5l6 -9t5.5 -9t3.5 -5.5q0 -8 0.5 -28.5t1 -43.5t1 -43.5t0.5 -28.5v-72t-1 -67
t-3 -67t-6 -72l19 -30v-38v-57q0 -3 -2 -11.5t-4 -18.5t-4 -18.5t-2 -10.5q0 -4 1 -24t1 -38v-15.5t-2 -8.5q0 -2 -1 -8.5t-2 -14l-2 -14.5t-2 -10q-2 -2 -7 -10.5t-5 -10.5t1 -13.5t1 -20.5q0 -11 -2 -12q-5 -29 -17.5 -54.5t-28.5 -48.5t-34 -45l-36 -44q-2 -5 -8.5 -12
t-10.5 -9l-22.5 -16.5l-29.5 -21l-27.5 -19t-15.5 -9.5q-12 -7 -28.5 -8.5t-32.5 -1.5h-17q-29 0 -55.5 3.5t-46.5 14.5t-31.5 32.5t-11.5 56.5z" />
    <glyph glyph-name="k" unicode="k" horiz-adv-x="1047" 
d="M741 5q-8 0 -14.5 -1t-14.5 -2q-11 -2 -21 -3t-21 -1l-36 2q-14 4 -21 13.5t-10 21.5t-3 24.5t-1 23.5q-1 5 -3 18t-3.5 27l-3 27t-2.5 18q-9 12 -13 23.5t-11 23.5l-19 19q0 1 -2 10.5t-3 11.5q-4 11 -17 32.5t-29.5 42.5t-34.5 36.5t-32 15.5q-3 -2 -8 -4.5l-10.5 -5.5
l-10.5 -6t-7 -4q-4 -1 -8 -7.5t-4 -9.5q-2 -18 -3 -37t-1 -39l4 -92q0 -1 -2.5 -8t-2.5 -14q0 -1 2 -7q1 -3 3 -5v-24q2 -11 7.5 -13.5t9.5 -11.5l12 -22q1 -2 6 -6t10.5 -9t10 -9.5t4.5 -5.5v-12q0 -8 -4.5 -12.5t-11 -7t-14 -5t-13.5 -6.5h-83q-5 -5 -10.5 -6t-11.5 -1
q-17 0 -30.5 4.5t-32.5 4.5l-90 -9h-7.5t-8.5 1q-5 0 -10 1q-1 0 -5.5 2t-10 5l-11.5 6t-9 4q-5 3 -6 5.5t-1 6.5q0 11 10 17t23 10t26 7t19 8q27 22 45 53t21 66v35q0 8 0.5 16t4.5 15q-2 17 -2 34v34v34.5t2 34.5q2 2 6 11.5l6 14.5l-7 36l7 66v38q0 4 -0.5 14t-1.5 21.5
t-1.5 21.5t-1.5 15q-2 2 -6 8.5t-6 9.5l-7 12v47q-5 7 -9 12t-8 9.5t-6 7.5q-8 9 -23.5 18l-31.5 18.5t-28 20.5t-12 24q0 4 5 7.5t11.5 6.5t13 4.5l10.5 2.5q16 2 30 3t31 1h26q5 -2 10 -2h12q8 0 14.5 0.5t14.5 2.5q45 -9 91.5 -8t94.5 -4q8 -5 11 -15.5t6 -18.5
q-3 -2 -8 -7l-11 -11l-11 -11t-7 -8l-17 -34q-2 -2 -7 -6.5t-5 -6.5q-1 -2 -2 -7t-1.5 -11t-1.5 -11.5t-2 -6.5l-22 -24q-1 -5 -1 -9q-1 -4 -1 -9v-10q0 -6 1 -13.5t6 -12.5l2 -39l-2 -39q-5 -4 -6 -9t-1 -10q0 -13 7 -20.5t12 -18.5q2 -2 4.5 -9t9.5 -9q11 0 16.5 8t5.5 22
q14 8 21 18.5t11.5 22t8.5 24t11 25.5l5.5 8l7 10.5t7 10t4.5 5.5l37 44q1 1 3 13.5t2 13.5q4 11 10.5 21.5t8.5 21.5v42q4 5 16 11t13 11v20q3 10 12 17.5t20.5 13t24 8t21.5 2.5q11 0 20 -1t20 -2q7 -2 14 -3t14 -1h15q3 1 10 5t14.5 7.5t13.5 7t9 4.5h102q6 0 17 -1.5
t22 -4.5t19 -8t8 -12q0 -6 -4 -15t-9.5 -17.5t-12 -15t-11.5 -9.5l-29 -7q-1 0 -6.5 -1.5t-12 -3l-13 -3t-9.5 -2.5q-11 -4 -22 -11.5t-20 -7.5l-28 7q-3 0 -17 -3.5t-30.5 -8.5t-31 -10t-18.5 -8q-2 -1 -6.5 -5.5l-9.5 -9.5t-9.5 -10t-5.5 -6l-17 -12q-2 0 -12 -1.5
t-12 -3.5q-9 -4 -16.5 -16.5t-13 -28t-9 -31t-3.5 -24.5q0 -14 1.5 -29t10.5 -27l47 -52q0 -3 1 -10l2 -14.5t2 -14t2 -9.5l12 -17v-30q1 -11 9.5 -19.5t18.5 -15l20 -12.5t16 -12q2 -2 7 -12.5t5 -12.5q2 -2 7 -9t5 -9q1 -1 5 -8t8 -15l7.5 -15t4.5 -8q2 -5 10 -10.5
t17 -10.5q5 -4 10 -7.5t9 -8.5q3 -2 7.5 -9.5t6.5 -7.5q2 -3 7.5 -9t12.5 -12.5l13 -12.5t9 -8q7 -8 20 -12.5l27 -9l28 -9t25 -10.5q5 -5 5 -7q4 -6 13.5 -16l19 -20.5t16.5 -20t7 -14.5q0 -14 -12 -19t-23 -5q-14 0 -25.5 3.5t-24.5 3.5t-28 -5q-7 -3 -14.5 -5t-23.5 -2
q-1 0 -6 1.5t-11 3.5l-11.5 4t-6.5 3q-1 0 -7 0.5t-13.5 1t-13.5 1.5t-7 2q-11 3 -17.5 6t-13 5.5t-14.5 4t-21 1.5z" />
    <glyph glyph-name="l" unicode="l" horiz-adv-x="888" 
d="M80 52q0 18 9 25.5t22 11t27 5.5t25 8t17.5 15t10.5 19.5t7 21.5t8 22q2 27 3.5 53.5t1.5 53.5q0 20 -1 39l-2 39q6 9 13 22.5t7 29.5q0 3 -1.5 12t-3.5 19t-4 18.5t-3 10.5q0 2 -0.5 11.5t-0.5 18.5q0 4 0.5 7t0.5 5t-2.5 10.5t-2.5 18.5q0 3 4 13t8 17q-2 2 -3.5 12
t-3.5 12v59q0 2 -2.5 7.5t-5.5 11.5l-5.5 11t-3.5 6q-5 12 -7 24.5t-4.5 24.5t-6 24t-11.5 22q-3 5 -14.5 16t-15.5 14q-2 1 -2 4.5v5.5q0 11 8.5 18.5t19.5 7.5h9q52 -5 101 -8.5t103 -3.5q11 0 22 5t25 7l38 2l38 -2q4 0 12.5 -6t11.5 -11l7 -7q0 -2 -2.5 -8.5t-4.5 -8.5
q-4 -5 -12 -14t-12 -11q-2 0 -8 -1t-13 -2t-13 -1.5t-8 -0.5q-14 -3 -27 -14.5t-23 -26.5t-16.5 -31.5t-9.5 -29.5q-4 -18 -5.5 -37t-1.5 -37l12 -92q0 -16 -3.5 -30.5t-8.5 -28.5q0 -6 1 -22.5t1 -34.5t-1 -34t-1 -23q0 -1 -1 -7t-1.5 -13t-1.5 -13.5t-1 -8.5v-17
q1 -2 4.5 -8.5t7 -14.5t7 -15t3.5 -10q0 -4 1 -12t1 -16q0 -9 -1 -15.5t-1 -8.5q5 -3 14 -12.5l11 -11.5v-9q0 -5 -1 -9t-3 -8q-2 -5 -2 -9v-9q0 -8 9.5 -13t22.5 -9t25.5 -5.5t17.5 -1.5h14q7 1 27 3t41.5 3.5t41 3t26.5 2.5q43 25 81 57.5t70 68.5q3 3 5.5 8.5t5 10t6.5 8
t11 3.5q6 0 13 -5.5t12.5 -13.5t9 -16.5t3.5 -14.5q0 -17 -3.5 -30t-3.5 -29v-11q-3 -3 -10.5 -12t-15 -19.5l-14 -20t-9.5 -13.5l-10 -35q-2 -2 -11 -12t-13 -12q-5 -5 -11.5 -6t-13.5 -1h-29q-1 1 -6 3t-11 4t-11.5 3.5t-7.5 1.5h-59q-3 0 -13 3.5t-11 3.5q-2 0 -8.5 -2.5
t-9.5 -4.5l-12.5 -6t-11.5 -6h-95q-13 9 -28 10.5t-29 1.5h-21q-11 0 -22 -2t-25 -10q-24 -2 -48.5 -2h-49.5h-49.5t-49.5 2l-29 12q-12 5 -18 12t-6 21z" />
    <glyph glyph-name="m" unicode="m" horiz-adv-x="1409" 
d="M1077 9q-31 0 -60.5 -5.5t-62.5 -5.5h-8h-12.5t-12.5 0.5t-8 1.5q-3 1 -8.5 6t-12 11.5t-11.5 12t-6 8.5q-4 2 -7 9.5t-3 9.5q0 14 9.5 22t23.5 13t31.5 8.5t33 9.5t28 16t17.5 28v105q2 2 6.5 14t4.5 14v11v10q-1 2 -4 7.5l-6.5 12l-6.5 12t-3 6.5q0 3 -1.5 12t-3 19.5
l-3 20.5t-2.5 15v56v21q0 1 -1.5 7l-3 12.5l-3 12.5t-1.5 7q-2 7 -5 23t-6 34.5t-5 34.5t-3 23q-1 1 -4.5 1h-5.5q-11 0 -20 -8t-16 -19t-12.5 -22.5t-8.5 -19.5q-3 -6 -11.5 -28l-18.5 -48l-18.5 -49t-10.5 -29q-4 -11 -10 -18.5t-13 -14.5t-14 -15t-11 -19q-3 -5 -6 -15.5
t-3 -12.5q-1 -3 -2.5 -11.5t-3 -18t-3 -18t-1.5 -11.5q0 -2 -3 -7.5l-6.5 -12l-6.5 -12t-3 -6.5v-48q-2 -13 -7 -41.5t-14 -58t-22.5 -51.5t-32.5 -22h-11q-26 20 -45 43.5t-31 53.5q-2 1 -5.5 16t-4.5 22q-2 3 -3.5 11t-3 17.5t-2.5 18t-2 10.5q0 5 -3.5 16t-4.5 13
q-3 2 -11 9.5t-8 9.5q-2 3 -3.5 11.5t-3 18t-2.5 18t-2 11.5q0 1 -2.5 7l-5.5 13.5t-6.5 15t-4.5 11.5q-2 2 -5 10.5t-3 9.5q-2 1 -7 6.5t-9.5 12l-8.5 12.5t-5 7q-2 3 -5 13l-6 21t-5 21t-3 13q-2 2 -5.5 9.5t-4.5 9.5q-2 1 -5 5t-6 9l-5.5 9.5t-2.5 5.5q-2 1 -5 6.5t-6 12
t-5.5 12.5t-2.5 7q-7 7 -22 13.5t-16 5.5l-11 -10q-1 -5 -4 -18t-6 -28t-5.5 -29l-3.5 -20q-11 -54 -13.5 -106.5t-5.5 -106.5q0 -2 -2 -9t-4 -15t-4 -15t-2 -8v-45v-43q3 -3 10 -9.5l15 -14l15 -14t10 -9.5q12 -8 27 -8.5t28.5 -3t22.5 -13t9 -39.5v-3q-3 -4 -10 -10.5
t-9 -8.5q-1 -1 -2 -1q-1 -1 -4 -1q-1 0 -2.5 1t-3.5 1q-1 0 -6 1.5t-12 3t-13 3t-8 1.5t-14.5 -1.5t-27.5 -3t-28 -3t-16 -1.5q-1 -1 -10 -1.5t-21.5 -0.5h-25h-21.5h-19h-24t-21.5 0.5t-11.5 1.5q-11 0 -25.5 0.5t-28 4t-23 12t-9.5 25.5q0 26 17.5 39.5t41 22l47.5 16.5
t37 24q2 1 6.5 9.5l9.5 18t9 18.5t5 11q2 1 5.5 4.5t6.5 5.5q-14 13 -18.5 19t-4.5 19q0 2 2 5.5t2 4.5q0 7 4 32.5l8.5 54.5l8.5 54.5l5 31.5q1 5 2.5 25t3 43t3 42.5t3.5 24.5q2 19 6.5 37.5t9.5 36.5t9 36.5t4 38.5q0 28 -8.5 46.5t-32.5 35.5q-5 0 -17 1.5t-26 3
t-26.5 3t-17.5 2.5q-18 4 -33 10.5t-15 27.5q0 15 9 26t22 18.5t28 11t27 3.5q4 0 16 -5.5t14 -5.5q4 0 15 4.5l16 6.5h31q36 0 70 -2t72 -9q22 -3 39 -29.5t29 -61t21 -68.5t16 -52l5 -10.5t9 -18l9.5 -18.5t6.5 -11q0 -2 1.5 -8.5t3 -15t2.5 -15.5t1 -10q1 -1 4 -7.5
l6.5 -14.5l6.5 -15.5t4 -9.5q1 -4 3 -13.5t5 -20t6 -20t5 -13.5q0 -3 1 -10t2 -15t2.5 -15t3.5 -9q10 -22 23 -39.5l25.5 -34.5t22.5 -36t15 -44q2 0 3 -0.5t2 -0.5q11 0 13.5 11.5t2.5 17.5q0 13 -7 23t-7 24q0 15 9.5 28t22 25.5t24 26t15.5 29.5q1 3 2.5 12.5t3 20.5
t2.5 20.5t1 12.5q1 1 4.5 9.5t5.5 10.5l36.5 55.5t31.5 59.5q7 19 13.5 40t12.5 43l11.5 42.5l10.5 38.5q7 28 11 46t12 28.5t24 15.5t48 7q4 0 17 1t27.5 2.5t27 3t16.5 1.5q25 2 60 6.5t60 4.5h5q2 -2 9.5 -6.5t9.5 -4.5q1 0 8.5 -1.5l15.5 -3t15.5 -2.5t8.5 -1
q7 -3 9 -10.5t2 -13.5v-7q0 -14 -5 -22t-13 -12t-18.5 -6.5t-22.5 -6.5q-2 0 -9.5 -4.5t-9.5 -4.5q-5 -1 -16.5 -1h-23.5h-23.5t-14.5 1l-16 -15l14 -227v-221q25 -37 35.5 -83t15.5 -90q1 -2 4.5 -5.5t5.5 -3.5q15 -8 45.5 -19.5t60.5 -25.5t53 -32t23 -39q0 -13 -8 -25
t-19 -21.5t-24.5 -15t-23.5 -5.5h-12q-3 0 -17 1.5t-30.5 3t-30.5 3t-17 2.5h-49h-19q-3 0 -10 1.5t-15.5 3t-15 3t-7.5 1.5h-9z" />
    <glyph glyph-name="n" unicode="n" horiz-adv-x="1150" 
d="M168 2q-18 0 -31 1t-33 6q-11 2 -12.5 5t-1.5 12q0 26 20 37t43 13h48q2 0 11 9.5t13 14.5q3 2 7.5 9t4.5 9q1 4 2 14.5l2 22t2 21.5t1 14l-7 78v14q0 5 1 10t6 9v43l-7 125v57q3 4 7.5 17t4.5 24q0 35 -9 63.5t-20 59.5q0 2 -2.5 10t-4.5 9q-4 9 -6.5 13.5t-10.5 11.5
q-3 2 -10.5 7.5t-16 12.5l-17 13.5l-12.5 9.5q-12 9 -27.5 15.5t-30 14.5t-25.5 19t-13 30q0 2 1.5 8.5t3.5 9.5q1 2 5.5 6t6.5 6h24q11 1 19.5 6.5t20.5 5.5q21 0 41.5 -5t41.5 -7q2 -1 11 -2t19 -1.5t19 -1t11 -0.5q2 -2 14 -8.5t16 -10.5l31 -37q21 -16 40.5 -33
l39.5 -34q0 -2 5 -3.5t7 -1.5q1 -2 3 -4t2 -3l14 -25l41 -43q2 -2 6.5 -12t5.5 -12q11 -18 24 -29t26.5 -20l27 -18.5t26.5 -24.5q23 -25 38 -49t35 -53q0 -2 2.5 -3.5t4.5 -3.5l17 -12q3 -2 10.5 -10l16.5 -17l17 -17t11 -9q2 -3 9 -8t9 -6q6 -5 13 -14.5l14 -18.5t14 -16
t14 -7q11 0 19.5 6.5l16.5 12.5q11 8 12.5 11.5t1.5 13.5l-14 90l7 86q0 1 -2 5t-4.5 8t-4 7.5l-1.5 3.5v24q0 3 -2.5 10t-4.5 9v92q0 3 -0.5 11t-1.5 17t-1.5 17t-1.5 11q-2 9 -9.5 16.5t-18.5 7.5t-23 -3.5t-25 -3.5q-7 0 -23.5 1t-33.5 4.5t-30 10.5t-13 20v31
q0 12 0.5 23.5t4.5 19.5t12.5 13t23.5 5q27 0 54.5 -6t52.5 -6q14 0 32 2.5t32 9.5h121q8 -5 18 -6t21 -1h24q13 -7 15 -20.5t2 -27.5v-6q0 -27 -24 -43l-56 -36q0 -1 -4 -2t-9 -1.5l-10 -1t-6 -0.5q-4 -2 -9 -11t-10 -20.5t-8.5 -21t-3.5 -11.5l7 -32v-4.5t-2 -3.5
q0 -2 -2.5 -7t-2.5 -7q-3 -11 -3 -25t-0.5 -28.5t-2 -27.5t-6.5 -21l-5 -156q1 -27 10.5 -50.5t11.5 -49.5l7 -111q2 -9 6 -19q5 -19 13 -41v-92q0 -11 -11 -17.5t-20 -6.5q-11 0 -23 6t-24 14.5t-22 18t-16 16.5q-3 3 -8.5 9.5l-11.5 13.5l-11 12.5t-7 7.5q0 2 -4.5 12.5
t-5.5 11.5q-2 1 -8.5 7.5l-14 14l-14 14t-7.5 8.5q-31 31 -55 65q-11 17 -24 26t-24 23q0 2 -5 9l-7 10q-1 1 -3.5 5.5l-5.5 9.5l-5.5 9.5t-3.5 4.5q-14 19 -36 30.5t-38 25.5l-17 19q-2 1 -7.5 8.5t-5.5 10.5l-36 29l-79 85l-12.5 12.5l-17.5 17.5l-16.5 16t-9.5 9
q-5 4 -9.5 5.5t-12.5 1.5q-12 0 -16.5 -7.5t-4.5 -18.5v-9.5t2 -7.5l5 -48v-85l5 -94q1 0 2 -5t2 -11l2 -11.5t1 -6.5v-63q0 -1 2.5 -11.5t4.5 -12.5q2 -23 7 -46.5t5 -46.5v-11.5t-2 -11.5l7 -5q6 -1 20 -2.5t29.5 -3.5t29 -4.5t18.5 -3.5q18 -1 22 -7t4 -22q0 -27 -20 -35
t-42 -8q-11 0 -18.5 1t-13.5 3t-12.5 4.5t-16.5 4.5q-5 0 -16.5 3t-14.5 3h-50z" />
    <glyph glyph-name="o" unicode="o" horiz-adv-x="1103" 
d="M142 216q0 7 -2 18t-3 15q-2 3 -10 9.5t-9 7.5q-5 8 -7.5 19t-4.5 19q-2 7 -6.5 20.5t-6.5 16.5q0 2 -5 9.5t-7 9.5l-5 10q0 3 2.5 13t2.5 11q0 5 1 20t1 32t-1 31.5t-1 20.5l7 19q0 1 0.5 7.5t1.5 14t2 14t1 8.5q2 4 11 15t14 16q0 1 -3 7.5t-3 9.5q-1 0 -1 1v2l1 4
q8 14 19 31.5t25 28.5q11 10 21.5 17.5t19.5 19.5q9 11 15.5 25.5t15.5 27.5q0 2 2 4t4 3q22 16 45 34.5t46 31.5q1 1 6.5 4t12 6l11.5 5.5l7 3.5l24 19q3 1 12 1.5t19 1.5t19 1.5t12 0.5q1 1 5 3t9 4t9.5 3.5t5.5 1.5q17 5 38.5 9.5t39.5 4.5q25 0 49.5 -9.5t49.5 -14.5
l54 -11.5t53.5 -12.5t51.5 -17.5t49 -27.5q1 -1 5 -5.5t9 -9.5t10 -9.5t7 -5.5q1 -1 11.5 -3t12.5 -2q4 -3 6 -8.5t3.5 -12l3 -12.5t4.5 -10q1 -1 3.5 -5t6 -8t6 -7.5t3.5 -3.5l5 -31q3 -5 12.5 -14t12.5 -11v-55q0 -7 4.5 -17l9.5 -21l10 -22t7 -20q3 -15 4 -26l2 -21.5
t1 -21.5v-26v-38q0 -2 -3 -15.5t-4 -20.5q-2 -6 -4 -15t-3.5 -18t-3 -15.5l-1.5 -6.5l-8 -12l-13.5 -19.5l-14 -19t-8.5 -10.5q0 -1 -3.5 -7l-7.5 -13.5t-8 -14t-5 -8.5q-13 -18 -29.5 -33.5t-30.5 -32.5q-9 -12 -12 -17t-13 -14q-14 -11 -26 -17t-24 -19q0 -2 -4 -10t-6 -8
q-2 -1 -7 -2t-11.5 -2t-12 -1.5t-7.5 -1.5q-6 -3 -21.5 -9.5l-33 -14t-33 -15t-21.5 -11.5h-59q-88 0 -173 31l-12 7q-2 3 -5 6q-6 6 -7 6q-1 1 -5.5 2t-9.5 2l-10 2t-6 1q-36 8 -64.5 27t-52.5 43t-47 50.5t-49 49.5v3zM374 157q-2 -3 -2 -8q0 -8 5.5 -14t12.5 -10.5
t14.5 -8.5t12.5 -7q10 -8 20.5 -17.5t22 -18t23.5 -14t27 -5.5q11 -2 21 -3t21 -1q9 0 17.5 1t16.5 3l19 7l28 1l28 -1q2 1 5 2q4 1 7 4q3 2 8 4.5t10 5.5q5 4 11 8q2 1 7.5 6.5l11.5 11.5t11 11.5t7 6.5l19 12q7 7 18 19.5t21 27t17.5 28.5t8.5 24q1 3 2.5 9t2.5 13
t1.5 12.5t0.5 6.5q6 57 6 111q0 43 -6 85q-4 6 -4.5 13t-0.5 15v24q0 10 -2 15q-1 12 -10 21.5t-14 20.5q-8 18 -12.5 33.5t-11.5 33.5q-1 2 -2 5t-3 7l-19 32q0 1 -2 11t-3 13q-21 29 -52.5 43.5l-63.5 28.5q-3 2 -10.5 4t-8.5 2h-42l-31 7h-61l-36 -18q-11 -5 -19 -6
t-17 -8q-17 -11 -33 -23.5t-35 -24.5q-1 0 -1.5 -1t-2.5 -2t-3 -2q0 -2 -0.5 -6.5t-1.5 -9.5t-1.5 -9.5t-1.5 -5.5l-12 -12q-3 -4 -6.5 -11.5t-7.5 -15t-6.5 -14t-3.5 -8.5v-29q-1 -2 -3 -8l-4 -12t-3.5 -11.5t-1.5 -6.5v-9l12 -59q0 -11 -6 -18.5t-6 -19.5q0 -32 10 -55.5
t14 -51.5l12 -109l12 -19q1 -1 3 -7q1 -3 2 -5z" />
    <glyph glyph-name="p" unicode="p" horiz-adv-x="879" 
d="M84 33q0 18 9.5 27t23 13.5t28 6.5t25.5 6q32 42 42 96t10 110q0 37 -1.5 72t-1.5 67v21q0 4 1 19.5t2.5 33t3 33t1.5 19.5q0 3 -1.5 13l-3 21t-2.5 21t-1 13q-1 7 -2 27.5t-2.5 44t-3.5 44t-3 29.5q-11 19 -28.5 32.5l-34.5 25.5t-29.5 24.5t-12.5 29.5v12q0 7 1.5 12.5
t8.5 6.5q27 9 59 15t65 9.5t64.5 4.5t58.5 1h21q4 -2 16 -6.5t14 -4.5h57q2 0 8.5 -1t14 -2.5t14.5 -3.5t11 -3q55 -13 113.5 -25t109.5 -41q4 -5 13.5 -18.5l20.5 -29l20.5 -29.5l13.5 -20q1 -2 4.5 -9.5t3.5 -9.5q1 -3 3.5 -16.5l5.5 -30t5.5 -33t3.5 -25.5q0 -1 1 -2
q2 -2 2 -5q0 -12 -6.5 -32.5t-16 -41.5t-21.5 -39t-23 -25q-3 -2 -13.5 -8l-22 -12t-21 -11.5t-11.5 -6.5t-8 -5t-12.5 -9t-12.5 -9t-8 -5q-1 -1 -5 -2.5t-8.5 -3.5t-8.5 -3.5l-4 -1.5q-4 -1 -11 -4.5t-8 -5.5h-54h-37t-32 1t-33 3t-40 6q-8 -3 -13 -7q-13 -7 -13 -12v-164
q8 -13 9.5 -23t1.5 -24q0 -17 -5.5 -32t-5.5 -32v-3q3 -5 13.5 -16t12.5 -14q12 0 28.5 2t33.5 2q26 0 46 -8t20 -35q0 -14 -10.5 -30.5t-27.5 -16.5h-368q-4 0 -13.5 2.5t-19 7t-17 10.5t-7.5 13zM393 481q2 -3 8.5 -10t9.5 -9h5h3q2 0 8 1.5t13 3t13 3t8 1.5h17h57h12
q3 0 11 5l17 11t17.5 12.5t11.5 10.5q1 1 2 6.5t2.5 12l3 12.5t3.5 7q2 9 6.5 16t9.5 13.5t9 14t4 17.5q0 4 -2 10q-1 3 -1 6q-1 12 -3.5 31.5t-5.5 39.5t-6 35t-4 18q-5 21 -16.5 36.5t-27 27t-33.5 19.5t-36 14h-7q-22 0 -49.5 -3.5t-52.5 -15.5q2 -13 2 -25v-25
q0 -59 -4.5 -116.5t-4.5 -119.5v-60z" />
    <glyph glyph-name="q" unicode="q" horiz-adv-x="1151" 
d="M1140 -270q-8 4 -28.5 12.5l-43.5 17.5l-43.5 17.5t-28.5 11.5q-3 0 -10 1t-15.5 2.5t-15.5 3t-8 2.5q-2 0 -6.5 3t-9 6.5l-8.5 6.5t-5 3l-5 2.5t-6 3.5l-8 4h-48h-19q-5 0 -16 8.5t-14 10.5q-64 32 -133 53l-138 44q-24 8 -47.5 19t-46.5 19q-3 1 -16 5t-27.5 9l-27 9.5
t-15.5 5.5t-9.5 3.5t-12.5 5.5t-11 6t-5 4q-2 1 -7 5t-9.5 9t-8.5 9l-5 5q-2 2 -9.5 5.5t-9.5 4.5t-10.5 8l-19.5 16.5l-22 19l-17 14.5q-18 17 -32 45.5t-27 50.5q-22 44 -39.5 87.5t-17.5 92.5v23q1 3 4 13l6.5 21.5t6 21t2.5 11.5q2 10 5 34.5t6 52.5t5 52.5t3 33.5
q14 10 23 23.5t15.5 28l13 28.5t16.5 26q2 2 7.5 6.5l11.5 9l11.5 8.5t7.5 5q4 3 15.5 6t13.5 3q3 2 11.5 9l19 15.5l19 15.5t11.5 8q24 20 48.5 31t56.5 18h26q19 6 34 12.5t29.5 12t30.5 9.5t38 4h5q38 -9 71 -11t74 -8q45 -7 92.5 -34.5t89.5 -65.5t75 -83t51 -87
q1 -2 2.5 -8.5t3 -14.5t2.5 -15t1 -9q1 -4 4.5 -14.5t5.5 -14.5v-101q0 -47 -1 -83.5t-8 -69.5t-23 -64.5t-46 -67.5l-22.5 -26l-34.5 -40.5l-34.5 -41t-22.5 -27.5q9 -15 25 -26t35 -18.5t39.5 -11t38.5 -3.5h13.5t11.5 2q1 -2 4.5 -5.5t5.5 -4.5q4 -3 17.5 -9.5l29 -14
l29 -14l19.5 -9.5q1 -1 6 -2.5l10 -3t9 -3t5 -1.5q16 -10 29.5 -20.5t27 -19t28 -14t32.5 -5.5h8.5t8.5 1q44 -20 86 -45t87 -41q3 -2 11.5 -4.5l18 -5.5l18 -5.5t11.5 -3.5q1 -1 6.5 -2.5t12 -3l12.5 -3t7 -1.5q1 -1 5 -4l9 -6.5l9 -6.5t5 -3h17h42q2 0 9 -3.5t10 -6.5
q3 -2 8.5 -6l12 -8.5t11.5 -8.5t6 -5h164q6 0 16 3.5t20 8.5l19 9.5l13 6.5q43 17 85.5 31.5t87.5 27.5q20 5 39.5 13t41.5 8q0 -29 -10 -52t-25.5 -42.5t-35.5 -36.5l-40 -35q-14 -14 -34 -26t-42 -22t-44.5 -17.5t-41.5 -11.5h-9h-21q-29 -6 -59 -17.5t-60 -11.5
q-29 0 -66 5.5t-66 13.5q-2 1 -10 3t-17 5l-17.5 6t-12.5 5q-1 2 -9 6.5t-10 4.5h-38q-1 0 -8 3l-12 5q-30 18 -55.5 24.5l-59.5 15.5l-12.5 3t-17.5 5t-17 6t-11 5q-2 1 -8 3.5t-12.5 6t-12 6t-6.5 3.5q-2 1 -9 2t-15.5 2.5t-15.5 2.5t-8 2q-2 0 -6.5 4.5t-9 9.5t-8 9.5
t-4.5 5.5t-7 2.5l-12.5 3l-12.5 3t-7 1.5q-2 0 -14 4.5t-14 4.5h-10zM351 202q17 -23 38.5 -38.5t45.5 -28t48.5 -23.5t47.5 -26q2 0 6.5 -3l9.5 -6.5l9 -6.5t6 -3q1 0 13.5 -0.5t19.5 -0.5q14 0 26 3.5t23 7.5t22 7.5t24 3.5h8t9 -2l125 125l10 21q-2 8 -2 28v43v43.5
t2 28.5q0 3 1.5 16t3 27.5t3 27.5t1.5 16v10v9q-2 6 -3.5 17.5t-2.5 22t-2 19l-1 8.5l-10.5 10t-10.5 9q-1 3 -4 14.5t-6 24.5l-5.5 24.5t-3.5 14.5l-4 8q-4 8 -4 11q-3 6 -9.5 17l-13 21.5l-11.5 19t-6 10.5q0 2 -3.5 5t-5.5 3q-1 1 -5.5 2.5t-9.5 3t-9.5 3t-4.5 2.5
q-9 6 -18 15l-18 18t-18.5 15.5t-21.5 8.5h-18h-41q-3 2 -14.5 6t-13.5 4h-16q-19 0 -44.5 -10.5t-51.5 -26t-48.5 -34t-34.5 -34.5q-22 -30 -32 -64.5t-15 -71.5t-8.5 -74t-12.5 -71v-3q0 -17 5 -32t11.5 -29.5l13.5 -29t12 -30.5q0 -5 2.5 -20l5.5 -32l6 -32.5t5 -21.5z
" />
    <glyph glyph-name="r" unicode="r" horiz-adv-x="989" 
d="M67 43q0 2 5 11t7 12q14 18 38 25.5t47 7.5h12.5t11.5 -2q11 8 18.5 19t12.5 24q-1 4 -2 13.5t-1 21.5q0 11 1 21.5t2 14.5q2 16 10 29t8 30v9l-12 24v29q-3 27 -8 54.5t-5 56.5l13 73l-2 38v8.5t2 8.5q2 16 3.5 32t1.5 32t-1.5 31.5t-3.5 32.5q-2 11 -1.5 23.5
t-4.5 23.5q-8 15 -19 28.5t-24 23.5q-12 10 -26 12.5t-28.5 4t-27 6.5t-20.5 20q-1 1 -1 3q-1 1 -1 4q0 9 5.5 14.5t13 8.5t16.5 4t15 2h42q14 2 29.5 8t31.5 6h7t5 -2q1 0 11 -6t13 -6h41l66 -5q2 -2 8.5 -2h8.5q16 0 26.5 3.5t27.5 3.5q36 0 74 -3t75 -14q24 -7 46 -11.5
t41.5 -11t37 -18t32.5 -32.5l19.5 -29.5t11.5 -23t5 -26t1 -37.5q0 -20 -5.5 -38.5t-20.5 -33.5q-3 -3 -11 -12t-18 -18.5t-18.5 -18.5l-11.5 -12q-4 0 -13.5 -2t-10.5 -5q-2 -1 -9.5 -4.5t-16 -7t-15.5 -7t-8 -3.5q-5 -2 -11.5 -3t-12.5 -2.5t-10 -5t-4 -10.5
q0 -13 4 -27.5t10.5 -28t15.5 -25.5t19 -19q2 -2 9.5 -7.5t9.5 -5.5l6 -7q2 -1 9.5 -11.5t10.5 -12.5l4 -4.5t9 -9.5t9.5 -10t6.5 -7l6 -12.5l11 -22.5l11.5 -22.5t7.5 -13.5q1 -2 6 -9l11.5 -16t13.5 -17.5t11 -12.5q11 -13 23 -22t25 -20l49 -36l62 -7q4 -1 13 -5
t17.5 -10.5t15 -14t6.5 -15.5q0 -4 -5 -13.5t-12.5 -19t-16 -17t-15.5 -7.5h-83q-11 9 -32 13t-35 6h-73q-40 14 -59 41.5t-32 65.5q0 2 -3.5 9.5t-14.5 21.5l-7 30q0 2 -1.5 6t-3.5 6l-16.5 24.5l-21 31.5t-19 27.5t-9.5 13.5l-72 79q-14 14 -32 23t-36 9q-4 0 -7 -1t-5 -6
q0 -3 1 -8.5t1 -12.5t-1 -13t-1 -8l-5 -26v-71q0 -2 -2.5 -13t-4.5 -16q0 -21 5.5 -34.5l13.5 -33.5l-7 -31q0 -18 13.5 -22t29 -6t29 -10t13.5 -33q0 -15 -8.5 -22.5t-20.5 -10.5t-25.5 -3.5t-23.5 -1.5h-116q-5 -1 -18.5 -2.5t-29 -3t-29.5 -3.5t-20 -3q-11 -8 -16.5 -10
t-14.5 -2q-16 0 -25.5 6l-21.5 13q-1 0 -9 1.5t-10 3.5q-4 3 -10.5 10.5t-6.5 8.5zM363 599q2 -3 3.5 -13t1.5 -12q3 -9 4 -20t3 -22t6 -20t13 -15q18 -14 32.5 -19.5t40.5 -5.5q2 0 8.5 2.5t8.5 2.5l55 37q6 4 15 7.5t17 8.5t14.5 11t7.5 14q0 2 1 10t2 17.5l2 19.5t2 16v7
q0 45 -16.5 88t-51.5 74q-11 11 -22.5 20.5t-28.5 9.5h-14l-61 -6q-26 -18 -32 -41.5t-6 -53.5v-74q0 -3 -1.5 -16.5t-3.5 -20.5v-6z" />
    <glyph glyph-name="s" unicode="s" horiz-adv-x="712" 
d="M73 142q0 9 1 18.5t4 18t8.5 13.5t14.5 5h8q17 -6 29.5 -18.5t19.5 -29.5l5 -24l6.5 -6.5t7.5 -6.5l10 -6q2 -2 7 -12.5t7 -12.5q2 -1 6 -5.5t6 -6.5q5 2 10.5 2h10.5q11 0 23.5 -3t21.5 -11q11 -2 22 -3.5t23 -1.5q11 0 23 1.5t24 3.5q10 2 24.5 18t27.5 36.5t22.5 40
t9.5 28.5v12q0 4 -1 12.5t-1.5 17.5t-1.5 15.5t-1 8.5q-2 1 -7 8.5t-5 10.5q-4 6 -6 14t-5 15.5t-7.5 13.5t-12.5 10q-2 2 -9.5 4t-7.5 3q-2 0 -10 8t-9 10q-2 2 -7 5.5t-11 7l-11 6.5t-8 5q-1 1 -6.5 4l-11.5 6l-11.5 5.5t-6.5 3.5q-3 2 -13 9.5t-11 9.5q-21 14 -36.5 21.5
t-28.5 15t-25 19t-26 34.5q-3 6 -9 15.5l-12 19t-10.5 17.5t-5.5 10t-3.5 11t-2.5 13v121q0 1 2 9.5l5 20.5t6.5 24l5.5 19q3 14 7.5 20.5t10.5 10.5t13.5 7t16.5 10l12 12l19 19.5l19 19.5t11 12q6 5 19 7.5t17 4.5q30 9 58 13t60 4h29q6 0 20.5 -0.5t30.5 -1.5t30.5 -1.5
t20.5 -1.5q9 -3 21.5 -12.5t24.5 -21.5t20 -26t8 -27q-1 -1 -3 -11t-2 -13v-48q-1 -2 -2.5 -8.5l-3.5 -14.5t-4.5 -15.5l-3.5 -10.5q-1 -5 -5.5 -6t-9.5 -1h-21q-5 2 -8.5 7.5t-6.5 11.5t-5 11.5t-4 8.5q-2 1 -6 5t-8.5 9t-9 9.5t-6.5 7.5q-1 0 -6.5 1.5t-6.5 3.5
q-6 3 -9 8.5t-5.5 11.5t-6 12t-9.5 11q-4 1 -14 5t-22 7.5l-23 7t-15 4.5h-30q-3 -3 -10 -9.5l-15 -14.5l-14.5 -14.5t-8.5 -9.5q-13 -17 -16 -42t-3 -45q0 -17 4.5 -31t12 -27t17.5 -25l21 -26q9 -12 19.5 -16.5t22 -6.5l22.5 -4t21 -9q1 -1 6.5 -6l11.5 -10l11.5 -9.5
t6.5 -5.5q2 -2 7.5 -5.5l11.5 -7l11.5 -7t7.5 -4.5q2 -2 12 -6.5t13 -5.5q0 -2 3 -7t14 -25l48 -48l19 -12q14 -11 16.5 -31t2.5 -38v-64q-5 -9 -5.5 -18.5t-0.5 -18.5v-31q0 -4 -3 -13t-4 -11q0 -1 -2.5 -4.5l-5.5 -7.5t-6 -7.5t-4 -4.5q-1 -3 -3 -13t-4 -11l-5 -19
q-3 -4 -11.5 -14t-18.5 -20.5l-18.5 -19.5l-11.5 -12t-10 -7.5t-9 -6.5q-2 0 -8 -0.5t-13.5 -1.5t-14 -2t-8.5 -1q-12 -3 -24 -8.5l-24 -11.5t-24 -11t-25 -6q-1 0 -18 -0.5t-28 -0.5l-45 1q-4 2 -15.5 6.5t-14.5 6.5q-12 4 -24.5 6t-25 3.5t-24.5 4.5t-24 10
q-12 6 -24 17.5t-21.5 25.5t-15 29.5t-5.5 29.5v19z" />
    <glyph glyph-name="t" unicode="t" horiz-adv-x="1049" 
d="M526 12q-11 0 -18 -3t-13.5 -6.5t-13.5 -6.5t-17 -3q-11 0 -21.5 3.5t-22.5 3.5q-23 -4 -42 -8t-39 -4h-21q-4 5 -4.5 8.5t-0.5 8.5q0 9 3 19.5t8 17.5l4.5 4.5t7.5 7l8 7t6 5.5q12 10 23 13t22.5 5t23.5 8t26 22q1 2 4 6.5t3 5.5v90q-8 20 -13 43t-5 44v10l11 38
q0 1 -1.5 5t-4 9t-4 9.5t-1.5 6.5v19l7 53q0 9 -3.5 15.5t-3.5 14.5l18 36q0 2 -6 12t-10 12v109l-9 19v109q0 10 -10.5 13.5t-25 5t-30 1.5t-24.5 3q-2 1 -16 7.5t-25 6.5q-12 0 -19.5 -5t-14.5 -11.5t-15 -12.5t-19 -8q-2 -1 -10 -2t-17 -1.5t-17 -1.5t-9 -2q-2 0 -5 -1
l-6 -2l-8 -2l-13.5 -13t-10.5 -11q-2 -3 -4 -13t-2 -11l-13 -14l-8 -2l-6 -2t-4 -1q-3 -2 -9 -8t-13.5 -12.5t-13.5 -12.5l-9 -9q-9 0 -15.5 6l-11.5 11v44q0 17 1.5 44.5t8 54t21 46t41.5 19.5l66 -9q7 0 18 1t13 1t12 2.5t42 2.5q25 3 50 7.5t50 4.5q14 0 27 -3.5t28 -3.5
l61 7h14q7 0 13 -2t11 -10h73q1 0 11.5 2.5t12.5 4.5h12q6 -1 18 -2.5t23.5 -2.5t20.5 -1.5t11 -0.5l12 -5q2 -1 4 -1q2 -1 4 -1q16 0 27.5 10.5t23.5 15.5q8 2 22 7t16 5h90q2 -2 9 -4t10 -2h43q1 0 4.5 -3.5t8 -8.5l9 -10t6.5 -8q17 -21 24 -38t7 -47q0 -2 -2.5 -9
t-4.5 -10v-97q0 -4 -4 -4.5t-7 -0.5q-6 0 -9 0.5t-10 4.5l-48 30q-3 3 -12.5 11l-20.5 17l-21 17t-13 10q0 2 -8 7t-10 5l-24 19q-3 2 -10 5l-13.5 6t-12 5t-6.5 2h-96q-2 -1 -5 -3q-6 -4 -7 -4q-5 -3 -14.5 -8l-19 -10.5l-17.5 -10.5t-10 -6q-5 -2 -6 -5t-1 -5v-14
q0 -3 3 -7q2 -3 4 -5q8 -37 13.5 -70.5t10.5 -69.5q5 -37 11 -72t6 -72v-97q1 -3 2 -13.5t2 -23t2 -23.5t1 -14l-7 -85q0 -8 0.5 -21.5t3 -27t7.5 -25.5t14 -16q4 -1 14.5 -4t22 -7l21.5 -7.5t14 -5.5q20 -7 29 -15.5t9 -29.5q0 -15 -7 -25t-18 -16t-24.5 -8.5t-26.5 -2.5
h-15l-19 12h-47q-3 1 -13 3.5t-21.5 6t-21 6t-11.5 3.5h-23z" />
    <glyph glyph-name="u" unicode="u" horiz-adv-x="1149" 
d="M198 268q0 3 -1.5 16t-3 28t-4 30t-3.5 23v12l12 36v135q-4 8 -4.5 11.5t-0.5 7.5v23q-5 45 -17 86.5t-26 84.5q-11 12 -26.5 20t-22.5 22t-19.5 22t-24.5 14t-21 11.5t-9 14.5q0 21 17.5 26t37.5 5h31q2 0 9.5 2.5t9.5 2.5q3 1 11.5 2t18.5 2t18.5 1.5t12.5 0.5h12
q5 0 9.5 0.5t7.5 0.5q7 0 18.5 -0.5t13.5 -0.5l79 -6q3 0 16.5 1.5t29.5 4l29.5 4.5t16.5 2h2q23 0 38 -15.5t15 -35.5q0 -17 -12.5 -27t-30 -17t-36.5 -12.5t-32 -13.5q-3 -4 -8 -10l-10.5 -12t-9 -10.5t-3.5 -5.5l-1 -5.5t-2 -12t-1.5 -12t-0.5 -6.5l-7 -24v-189l7 -24
v-92q2 -18 7 -33t5 -32l-7 -68q2 -2 4 -7t3 -5q2 -3 7.5 -9t12.5 -12.5l13 -12.5l9 -9q1 0 6.5 -3t7.5 -4q2 -2 10.5 -8l18.5 -13l19 -13.5t12 -7.5q18 -12 34 -17t32.5 -7.5t34.5 -3t39 -3.5q14 -2 27 -7t27 -5l38 7l48 -7q26 9 42 22t38 33q14 13 14 33q0 7 1.5 14t3.5 21
q6 10 9 20t5 19.5t5 19.5t10 19v88q0 27 9.5 51.5t9.5 53.5q0 11 -0.5 20.5t-2.5 23.5q0 22 -1 40.5l-2 38t-2 43t-2 56.5q-5 13 -9.5 29t-18.5 24q-1 1 -6 4l-10.5 6t-11 5.5t-8.5 4.5q-12 6 -33.5 10.5t-42.5 12t-36.5 18t-15.5 28.5q0 19 9 30t23.5 16t31.5 6t33 1h43
l31 -7h147q2 -1 11 -3t14 -3q4 -1 17 -2.5t27.5 -3.5t27.5 -3.5t18 -1.5q10 -4 11.5 -11t1.5 -15v-3q0 -10 -3.5 -15.5t-8.5 -10t-12 -9t-14 -10.5l-12.5 -12.5l-20 -20.5l-20 -21t-12.5 -14q-12 -11 -27 -29.5t-17 -35.5l-19 -172q-7 -11 -7 -26l2 -29q-1 -2 -2 -10
t-1.5 -17t-1.5 -17.5t-2 -10.5q-2 -41 -2 -74.5t-4 -64t-16 -60t-38 -63.5l-25 -24q-3 -3 -10 -11l-15 -17t-16 -16.5t-12 -10.5q-8 0 -19.5 -1.5t-13.5 -3.5t-7 -7.5l-11 -12l-11 -11.5t-7 -6t-6.5 -4t-10.5 -6l-11.5 -5.5t-8.5 -3.5q-1 -1 -6.5 -2t-11.5 -1.5l-11.5 -1
t-6.5 -0.5q-2 -1 -10 -3.5t-17 -6t-17.5 -6t-10.5 -3.5q-7 -1 -14 -1q-6 -1 -12 -1h-9q-32 0 -54 8.5t-50 12.5h-38q-20 2 -41 9t-38 15q-6 3 -16 7.5t-19.5 9.5t-17 8.5t-8.5 4.5t-5.5 7t-9.5 13.5l-9.5 14t-4.5 8.5l-31.5 34t-24.5 39z" />
    <glyph glyph-name="v" unicode="v" horiz-adv-x="917" 
d="M242 458q-2 3 -7 12t-5 11q-2 4 -3.5 15.5t-1.5 13.5q-2 3 -10 12t-8 11q-1 1 -2.5 6t-3 11t-3 11t-1.5 6q-1 1 -3.5 6l-5.5 11l-5.5 11t-2.5 7q-10 16 -12 33.5t-7 34.5l-15.5 54.5t-17.5 52.5q-2 4 -9 7t-9 5q-15 6 -34.5 10.5t-36 11.5t-28 19.5t-11.5 34.5
q0 18 14.5 27t31.5 9h12l25 -3h26q9 0 18.5 -1.5t17.5 -5.5q7 0 24.5 1t37.5 1t37 -1t25 -1q1 0 7 -0.5t13 -1.5l14 -2t11 -1q3 0 12 -2.5t11 -4.5q7 -1 17 -1t19 -2t15 -7.5t6 -15.5q0 -20 -10.5 -28t-22.5 -19q-5 -4 -12.5 -11.5l-15.5 -15.5t-13.5 -16.5t-5.5 -13.5
q0 -16 9 -32t14 -32q3 -6 8 -17l9.5 -21.5t7.5 -18.5t3 -9q1 -2 2 -8l2 -12.5t1.5 -12.5t1.5 -8l5.5 -11t4.5 -12q2 -4 7 -17t5 -16l5 -34q7 -23 17.5 -45t17.5 -47q1 -1 2.5 -7l3.5 -13.5t3.5 -14.5t2.5 -10q3 -11 4 -21t4.5 -18t10.5 -13t21 -5q11 0 20 1t20 9q2 5 8 15.5
l12.5 22.5l12 23t6.5 16q1 1 2.5 10t3.5 19.5t3.5 19.5t1.5 11q6 26 20.5 47.5t25.5 44.5q0 2 2 8.5t4 8.5q0 1 1.5 8t3.5 15t4 14.5t3 7.5q0 3 1.5 7.5t3.5 4.5q0 2 5 3t7 2q0 1 0.5 6l1 10t1.5 9t2 5q2 12 6.5 26l9.5 29t8.5 29.5t3.5 26.5q0 13 -1 19.5t-4.5 10t-10 5.5
t-17.5 6q-23 8 -41 22t-18 39q0 5 1 8q0 3 1 5q2 5 12.5 13t15.5 10q1 0 4 1q2 0 4 0.5t4 0.5l74 -7q12 0 17.5 2t9 4l7 4t9.5 2q9 0 18 -5t17 -7h92q3 0 8.5 -0.5t11.5 -1.5t11.5 -2.5t7.5 -2.5q5 -2 6 -6t1 -8v-5q0 -18 -13.5 -31.5t-32 -24.5t-38.5 -21t-32 -22
q-18 -18 -26.5 -43l-16.5 -48q-2 -2 -7 -11.5t-5 -11.5l-5 -35q-3 -1 -13 -5.5t-11 -4.5q-2 -1 -6 -11.5l-8.5 -23l-9 -24t-6.5 -15.5q-1 -5 -4.5 -16t-5.5 -14q-2 -1 -6 -10.5t-6 -11.5l-4 -45l-12 -23q-2 -1 -3.5 -11.5t-1.5 -12.5q-4 -11 -12 -19.5t-12 -20.5l-1 -5
t-1.5 -10.5t-1.5 -11t-1 -6.5q-2 -1 -6.5 -8t-4.5 -9q-9 -13 -10.5 -23.5t-6.5 -26.5l-3 -6t-4 -9l-3.5 -9t-1.5 -5q-5 -12 -8 -24t-9 -23q-2 0 -6.5 -7t-4.5 -9q-1 -2 -3.5 -9.5t-5.5 -15.5t-5 -15.5t-3 -9.5q0 -2 -6 -9t-6 -8q-2 -4 -3.5 -7.5t-1.5 -4.5q-1 -2 -2 -8
t-2 -13t-1.5 -13t-0.5 -8q-1 0 -7 -7.5t-8 -11.5q-5 -10 -9.5 -16.5t-10 -11t-13.5 -6.5t-21 -2t-29 8t-23 19q0 2 -1 6t-2 9t-2 13q0 2 -2.5 7.5t-5.5 11.5t-6 11t-3 6q-7 14 -7 23t-5 28q-8 38 -21.5 75t-29.5 72l-17 36q0 1 -0.5 6t-1.5 11t-1.5 11t-1.5 7l-2 4
q-1 2 -3 4q-2 3 -9 12t-9 11q-4 10 -5 19.5t-2.5 18t-5.5 15.5t-14 11v27z" />
    <glyph glyph-name="w" unicode="w" horiz-adv-x="1282" 
d="M344 156q-21 31 -28 60t-12 57.5t-13 56t-30 56.5l-19 79v37l-3 5.5l-7 12.5l-8 13.5t-6 9.5l-19 24v49q0 3 -3.5 9.5l-7.5 13.5l-7.5 13t-3.5 7q-15 23 -22 52t-18 52q-5 12 -9.5 18.5t-12.5 9.5t-21 4.5t-35 5.5q-14 2 -25 8t-11 20q0 20 8 33.5l16 26.5l50 9h19
q27 -9 57 -15t59 -6q23 0 41.5 7t39.5 7q3 0 10 -0.5t15.5 -1.5t15 -2t8.5 -1q10 -8 23 -12.5t13 -18.5q0 -12 -4.5 -26.5t-12.5 -25.5q-7 -8 -22.5 -15.5t-19.5 -14.5l2 -31q1 -11 3.5 -26.5t5.5 -30.5t6 -28.5t6 -19.5l20 -21q9 -18 13.5 -38t8 -40.5t6 -41t7.5 -38.5
l31 -55q3 -7 5 -19.5t5 -24.5t8.5 -20.5t16.5 -8.5t19 8.5t14.5 20t11 23t7.5 16.5q0 2 8 9.5t11 9.5q12 15 16.5 35.5l9 41t12 38.5t27.5 30l2 40q0 8 -1 23t-1 17l-12 29q-4 11 -4.5 22t-2.5 25q-1 9 -2.5 20t-4.5 20q-8 18 -21.5 22.5t-28.5 8t-29 11.5t-23 34v9
q0 9 2 19.5t7 12.5q11 7 29 8t35 1h31q1 0 8 -2t16 -4l18 -4t15 -2l76 19l82 -14q9 0 17.5 3.5t20.5 3.5q23 0 36.5 -10t13.5 -35t-16 -34t-38 -12.5t-45 -5.5t-36 -14v-14q0 -10 3.5 -16t8 -11.5t8.5 -12t6 -17.5v-60q0 -4 6.5 -27l15.5 -55l19.5 -69l20 -68l16 -52
t7.5 -22q5 -5 8 -5.5t7 -0.5q7 0 11.5 0.5t11.5 5.5q0 2 1.5 6t3.5 8q7 19 17.5 37.5l22 37t21.5 36.5t17 38q1 1 1.5 6t1.5 10t1.5 9.5t0.5 5.5q9 23 16.5 38t12.5 35l6 43q6 11 13.5 22t14.5 22.5t12 24t5 26.5q-2 22 -13 32.5t-25.5 16t-29 9.5t-21.5 13l-5 21
q0 16 16 31q1 4 6.5 6.5t27.5 2.5h13t10.5 -0.5t12 -1.5t16.5 -2q32 0 53.5 2.5t41.5 4.5q5 0 18 -1.5t15 -1.5l50 1q18 0 23 -5q4 -5 9 -6t6 -8v-10q0 -18 -4.5 -28t-8.5 -15q-7 -7 -23 -13l-34 -12.5t-34 -15t-24 -21.5q-19 -28 -31.5 -54t-23.5 -52l-22 -52t-26 -54
l-17.5 -31t-15.5 -30t-11.5 -31.5t-4.5 -36.5l-14 -18q0 -6 -2 -15.5t-5 -20t-7 -19t-8 -12.5l-14 -35l-31 -65q-9 -20 -13.5 -33.5t-9 -25.5t-11 -25t-20.5 -31q-10 -15 -13 -29.5t-7.5 -25.5t-14.5 -17.5t-32 -6.5q-18 0 -26.5 3t-14 9t-10 15t-13.5 21q2 7 2 13.5v12.5
q0 22 -5 41.5t-11.5 38.5t-12.5 38.5t-8 40.5l-7 71q-2 10 -9.5 30.5t-17.5 41t-20.5 36t-17.5 15.5q-11 0 -20 -6t-12 -13q0 -1 -2 -5.5t-4.5 -9.5t-4 -9.5t-1.5 -6.5q-11 -43 -27.5 -75l-34.5 -69l-17 -26q0 -1 -2 -6.5t-3 -6.5q0 -2 -1 -8t-2.5 -13l-3 -13.5t-2.5 -7.5
q0 -2 -8 -12t-9 -12q-9 -21 -12.5 -46.5t-11 -47.5t-23.5 -36.5t-50 -14.5q-16 0 -27.5 4t-14.5 27z" />
    <glyph glyph-name="x" unicode="x" horiz-adv-x="971" 
d="M74 24q-3 2 -7 7.5t-6 10.5q0 1 2 3t4 3q7 5 17 11l21 12l22 11.5l19 9.5q38 17 65 45.5l56 57.5q3 0 10.5 5.5t8.5 5.5l10.5 10t15 15l14 15l9.5 10q6 7 7.5 18.5t4.5 17.5q1 1 3 2l4 4q8 6 19.5 15.5t22 21t18 23.5t7.5 23q0 19 -14.5 31t-23.5 26q-1 2 -3.5 8.5
l-5 13.5t-5 13t-3.5 8q-7 14 -12.5 17t-18.5 14q-3 2 -9 7.5l-13 12.5l-13 13t-8 9q0 1 -5.5 9t-7.5 10l-17 19l-7 34q0 2 -5 10t-7 9q0 2 -2.5 9.5t-2.5 9.5q-5 12 -10 18.5t-10 11t-10.5 8.5t-12.5 11q-2 1 -9.5 8l-15.5 15l-15 15.5t-9 9.5q-6 6 -15 8.5t-18 4t-18 3.5
t-16 8q-4 3 -11 10.5t-7 8.5v49l2 2q3 3 4 3l19 12q1 3 5.5 5t6.5 2q23 2 47.5 3t49.5 1t48.5 -0.5t48.5 -3.5q4 -2 16 -4.5t15 -2.5t16.5 -0.5t29 -1.5t29 -1.5t16.5 -1.5q31 -3 31 -31q0 -14 -8 -24.5t-17 -20.5t-17 -21t-8 -26q0 -17 7 -34.5t18 -31.5l38 -36
q0 -1 0.5 -6.5t1.5 -12t1.5 -12t1.5 -7.5l24 -24q2 0 5 -1t11 -1h9t11 2q1 1 6 2t10.5 1.5t10 1.5t4.5 2q2 0 6.5 4.5t6.5 7.5l12 36q9 23 20 39.5t11 43.5v21l-7 12v36q0 3 -7.5 7t-17 11t-17 18.5t-7.5 29.5q0 4 1 9t6 5q19 -2 38 -2h37h36t35 2q22 9 50.5 10.5t53.5 1.5
q1 -1 7 -3t13.5 -4t14 -3.5t8.5 -1.5l17 2l19 -2q2 0 9 -7.5t8 -11.5q2 0 2 -5q0 -15 -12 -24t-28.5 -15t-33 -10.5t-24.5 -11.5q-42 -32 -82.5 -68t-70.5 -79q-13 -18 -21.5 -43.5t-21.5 -41.5l-4.5 -4.5t-7.5 -8l-7.5 -8.5t-4.5 -5q-4 -4 -4.5 -6.5t-0.5 -6.5v-28l5 -12
q2 -8 3.5 -21t8.5 -22l4.5 -4.5l7.5 -7.5t7.5 -8t4.5 -5q3 -2 10 -11.5t9 -12.5l17 -36q1 -2 5 -6.5t8 -9.5l7.5 -9.5t4.5 -5.5q8 -11 11.5 -28t12.5 -26q1 -1 4.5 -4t7.5 -6l7.5 -5.5t4.5 -3.5q7 -5 10 -11.5t4.5 -13l3 -12.5t6.5 -11q5 -3 11 -7l8 -6q7 -5 9.5 -7.5
t4.5 -5.5t4 -7t7 -11q13 -14 29.5 -25.5t30.5 -22.5q3 -2 7.5 -6.5t6.5 -5.5q0 -2 1.5 -6.5t3.5 -5.5q4 -3 15.5 -10.5t15.5 -8.5q0 -2 1 -4q0 -2 0.5 -3t0.5 -2q0 -9 -8 -14.5t-18.5 -8.5t-22 -4t-18.5 -1l-75 7q-17 0 -30 -3.5t-29 -3.5q-11 0 -16 2t-9.5 4t-11 4t-20.5 2
l-95 -7q-11 0 -16.5 8t-5.5 18q0 14 9 22t19.5 14.5t19.5 14t9 19.5q0 14 -11.5 30.5l-19.5 27.5q-1 1 -3.5 6t-5.5 10t-6 9t-4 5q-1 2 -5.5 6.5l-9.5 9.5l-9.5 9.5l-5.5 5.5q-3 6 -3 13.5t-1 14.5t-3.5 12.5t-11.5 7.5l-26 2h-10.5t-16 -1t-16 -2t-10.5 -4v-19
q-3 -15 -12.5 -27l-19 -24t-17 -25.5t-7.5 -32.5v-3t2 -4q0 -1 2.5 -11t2.5 -13v-24q0 -2 2.5 -3.5t4.5 -1.5q6 -5 15.5 -8.5t18.5 -8t15 -10.5t6 -15q0 -14 -9.5 -22t-23 -11.5t-28 -4t-25.5 -0.5h-24q-62 2 -125.5 3t-123.5 9z" />
    <glyph glyph-name="y" unicode="y" horiz-adv-x="916" 
d="M476 12h-12h-13.5t-11.5 -0.5t-6 -1.5q-16 -1 -32.5 -7t-33.5 -6h-10q-2 0 -9 2l-15 4.5t-16 4.5t-12 2q0 2 -8.5 4.5t-10.5 2.5q-2 1 -7.5 1.5t-12.5 1.5t-12.5 1.5l-5.5 0.5q-9 5 -9 18q0 4 1 7t1 5q0 17 10.5 28t25.5 17.5t32 11l29 7.5q22 2 30.5 8t8.5 33
q0 10 -3 20t-3 22q0 19 9.5 36.5t9.5 37.5q0 7 -3 12.5t-6.5 10.5t-6.5 10.5t-3 13.5t3 17t3 19v2l-1 2q-3 11 -7.5 25l-9.5 29t-10.5 29l-10.5 26q-9 17 -22.5 30t-22.5 27q-19 29 -35 57.5t-36 53.5q-2 1 -6 5t-8 8.5t-7.5 8l-4.5 4.5q-1 2 -2 8t-1.5 12.5t-1.5 12t-2 6.5
q-4 3 -8 7l-11 11q-3 3 -14 11.5l-23.5 19l-24 20t-16.5 14.5q-2 2 -12 9t-14 12q-12 8 -24.5 12t-23 9t-17 13.5t-6.5 26.5q0 12 7.5 19t18.5 10t24.5 3.5t24.5 0.5h22q4 0 13 -0.5t19 -1.5t18.5 -1.5t10.5 -0.5q1 -2 8 -4.5t9 -2.5q1 0 7.5 1t14 2t14 2t7.5 2h19
q20 0 37.5 -7t35.5 -7l53 7q9 0 19.5 -1.5t19 -5.5t14 -11t5.5 -18q0 -6 -10.5 -19l-22.5 -27.5l-22.5 -27.5t-10.5 -20q0 -9 4.5 -17.5t10.5 -17t12.5 -16t10.5 -14.5l33 -57q0 -2 1 -9t2 -16t1.5 -17.5t0.5 -11.5l22 -24q6 -10 8.5 -19.5t5 -17.5t6 -14.5t12.5 -10.5
q2 -2 8 -5.5t12 -7.5t11 -6.5l7 -3.5h24q0 21 5.5 36t13.5 28.5t18.5 26t21.5 27.5q5 7 11.5 24t12.5 36.5t10 38t4 29.5q0 27 -12 47.5l-26 43.5q-2 3 -4 10t-2 9q0 17 6.5 26.5t19.5 17.5q7 6 12.5 8t12.5 2l27 -2q1 0 5.5 1t9.5 2.5t10 2.5t6 1q2 0 14.5 -2.5t18.5 -4.5
q1 0 4.5 -1t8.5 -3l12 -4q14 -2 29 -3t29 -1t27 1t27 3q3 -4 9.5 -8t13 -8.5t11 -10t4.5 -11.5q-2 -2 -4 -5q-4 -6 -5 -8l-5 -5q-3 -2 -14.5 -7.5l-24.5 -12l-24 -12.5t-13 -8q-1 0 -5 -4l-8.5 -8.5t-9 -8.5t-5.5 -4q0 -2 -4.5 -5t-10 -6l-10.5 -5.5t-7 -2.5
q-11 -10 -16.5 -20.5t-15.5 -19.5q-1 -2 -12 -9l-14 -9q0 -1 -4.5 -12t-7.5 -15q-2 -2 -3.5 -12.5t-3.5 -11.5q-1 -2 -5.5 -7t-10 -10.5l-10 -10t-6.5 -5.5q-11 -14 -12.5 -33t-5.5 -33l-3.5 -7t-6 -11l-6.5 -11.5t-6 -6.5q0 -2 -3.5 -6.5l-7.5 -10l-8 -10.5t-5 -6
q-2 -2 -4 -10.5t-2 -10.5q-1 -8 -1 -15.5v-13.5v-25q0 -11 -1 -20.5t-6 -22.5q-3 -5 -6 -9q-2 -4 -4 -6.5t-2 -3.5q-5 -12 -5.5 -22t-0.5 -21v-14q1 -6 2 -18l2 -25t1.5 -23.5t0.5 -13.5q1 -1 3 -7.5t4 -9.5q1 -3 5 -10l9 -15t10 -15l7 -10q7 -10 18.5 -16.5l22 -12.5
t18.5 -14t8 -21q0 -17 -5.5 -26t-14.5 -14t-21.5 -8t-25.5 -7l-12 -6l-26 6q-3 1 -10.5 3t-16 4.5t-15.5 4t-9 1.5q-1 2 -15 2h-21z" />
    <glyph glyph-name="z" unicode="z" horiz-adv-x="933" 
d="M531 29l-104 -13q-21 0 -39.5 9.5t-40.5 9.5q-24 0 -50 -3.5t-53 -3.5q-14 0 -24.5 0.5t-20.5 1.5t-20.5 2.5l-23.5 3.5l-24 4q-14 5 -26 19t-12 31v12l66 66l31 52q4 6 7.5 7.5t6.5 1.5t6.5 1.5t8.5 8.5q12 15 18 31.5t15 30.5q14 20 21 40t9 40q22 17 40 32.5t34 31.5
q14 14 26 27.5t23 27.5q6 20 12 38t15 35q4 10 15 20t18 21t6 21t8 19l31 14q2 2 6 11.5t8 21.5t7 23t3 16q9 7 11.5 23.5t2.5 25.5q0 6 -5.5 11t-13 8.5t-16 6t-13.5 2.5q-14 1 -26.5 2t-24.5 1l-50 -3q-19 -11 -46 -11h-71q-26 -2 -51 -16t-48 -33t-43.5 -39t-36.5 -33
l-10 -2q-9 0 -14 11t-7 20l83 175q2 4 6.5 10.5t9.5 10.5h9q10 -3 15.5 -6.5t9 -6.5l7.5 -6.5t11 -6.5q37 -5 63 -6t58 -1q25 0 44.5 8t40.5 8q61 -12 121.5 -18.5t123.5 -7.5q25 0 45.5 7t43.5 7q7 0 19 -1.5t23 -5.5t19 -11t8 -19l-2 -7q-21 -27 -39 -59.5t-39 -57.5
q-25 -28 -41.5 -56.5t-27.5 -63.5l-66 -64l-17 -41l-42 -42q-16 -15 -26 -31t-17.5 -32.5l-15 -33.5t-17.5 -34l-29 -33q-9 -21 -22.5 -37.5l-24.5 -30.5q-11 -17 -16.5 -34t-14.5 -36q-1 -1 -1 -3q-1 -1 -1 -3v-1q0 -25 18.5 -33t38.5 -9q25 -4 57.5 -6.5t57.5 -2.5
q66 0 122.5 21.5t103.5 63.5q12 12 18.5 20l12.5 15t14 13t24 13q5 0 14 -6.5t11 -11.5q0 -6 -2.5 -17.5t-6.5 -18.5q-2 -41 -7 -79t-14 -78q-11 -19 -31 -22t-45 -3q-31 0 -60 4t-57 9t-55.5 9t-55.5 4z" />
    <glyph glyph-name="braceleft" unicode="{" horiz-adv-x="839" 
d="M440 -167v18t1 22q0 12 1 26l95 188v19q0 60 -22.5 116.5t-72.5 94.5q-9 7 -24.5 18l-30.5 21.5l-26.5 18.5t-12.5 9l-268 95q-14 5 -15.5 14t-1.5 18q0 23 15.5 35.5t37.5 19.5t45.5 10.5t39.5 8.5l53 20t64 27t65 34t58 41.5t41.5 48.5t15.5 56q0 36 -3.5 77.5
t-11.5 72.5t-20 59.5l-23 56.5t-18.5 57.5t-7.5 63.5q0 55 20 109t56 97.5t85.5 70.5t108.5 27q19 0 40.5 -2t40 -9.5t30.5 -22t12 -38.5v-14t-2 -11q-12 -28 -36.5 -39t-54 -15t-61 -6t-57.5 -12t-42.5 -32.5t-16.5 -67.5q0 -59 19 -112t42 -105t42 -105.5t19 -111.5
q0 -20 -1.5 -33.5t-12.5 -31.5q-37 -47 -75.5 -79t-81 -54.5t-90.5 -38.5t-103 -31q-3 -2 -7.5 -6t-6.5 -6v-9q0 -13 30 -26t74.5 -30.5t97 -41.5t97 -58.5t74.5 -82t30 -111.5q0 -47 -12 -88t-30 -80.5t-39.5 -79t-39.5 -82.5q0 -1 -1.5 -9l-3.5 -18.5l-4 -21t-3 -16.5
q0 -2 -1 -4t-1 -4l2 -6q1 -8 3 -21l4 -25.5l3.5 -22.5t1.5 -11q0 -2 5.5 -7.5t8.5 -7.5l12.5 -6.5l17 -9t15.5 -7.5t9 -3q8 -2 29 -6.5t44.5 -8.5l44.5 -7.5t29 -4.5q23 -8 26 -22t3 -31q0 -34 -18.5 -58t-55.5 -24q-43 0 -86 17t-80.5 45.5t-66 65t-43.5 75.5
q-7 17 -10.5 38t-5 42.5t-1.5 42.5v38z" />
    <glyph glyph-name="bar" unicode="|" horiz-adv-x="496" 
d="M207 -427v62q0 78 -2.5 155.5t-7.5 152.5q-2 32 -7 65.5t-5 71.5l17 45q0 15 -8.5 27t-8.5 33q4 48 5 86.5t1 74.5q0 26 -1 55t-4 59v102q-9 37 -13 71t-4 66q0 39 3 75t13 79q-2 4 -7.5 17.5t-6.5 22.5l14 50q0 11 -7 26.5t-7 33.5l7 116l-16 343q0 9 3.5 23t19.5 17
l24.5 3.5t20.5 1.5q19 0 30.5 -5t22.5 -9q0 -4 2.5 -20.5t2.5 -24.5q3 0 5 -10l4 -21v-21l10 -47l-26 -138l16 -123l-9 -45q4 -15 6.5 -23.5t4 -13t1.5 -6.5v-4q0 -15 -2 -21t-10 -17q7 -8 12.5 -33.5t9.5 -55t6 -56.5t2 -38l-21 -142q0 -13 3.5 -27l7 -28.5l7 -28
t3.5 -25.5q0 -16 -3.5 -33l-7 -34l-7 -33.5t-3.5 -30.5q0 -29 8 -60.5t8 -62.5l-6 -38v-46.5t-0.5 -25t-0.5 -11v-5.5q3 -5 8.5 -29l11.5 -52.5t10 -54t4 -34.5l-15 -59q0 -18 3.5 -27t3.5 -19l-21 -142q0 -26 6 -48.5t8 -53.5q-11 -3 -11 -18v-3q0 -9 -1 -20t-7 -21
t-18 -16.5t-34 -6.5q-17 0 -27.5 5t-19.5 28z" />
    <glyph glyph-name="braceright" unicode="}" horiz-adv-x="844" 
d="M16 -450v5.5t1 6.5q0 4 1 7q17 30 44 43.5t57 19.5t60.5 9t55 12.5t39.5 30t15 61.5q0 53 -10.5 109.5t-30.5 105.5q-14 33 -26.5 57.5t-22.5 48t-15.5 48.5t-5.5 59q0 37 11 66t30 53t44 44.5l52 41.5q11 3 39.5 12l60.5 19.5l60.5 20l40.5 13.5q3 1 11 5l16.5 8.5t16 9
t9.5 6.5q-6 9 -17 15.5t-22 11.5q-47 19 -95 35.5t-92.5 37.5t-83 51t-66.5 76q-4 7 -10.5 19.5l-13 25.5t-11 23.5t-4.5 13.5q-1 0 -1.5 5t-0.5 11.5v13.5v11q0 60 21.5 114t47 106.5t47 106.5t21.5 114q0 41 -19 60t-48 27.5t-62 10.5t-62 9t-48 23t-19 52q0 21 8 35.5
t22 23.5t32.5 13t39.5 4q53 0 92 -24t76 -58q33 -29 54 -61t33.5 -68t17 -75.5t4.5 -82.5q0 -48 -15 -81.5t-33.5 -65t-33.5 -66t-15 -84.5q0 -54 23 -95t58.5 -73.5t78.5 -58.5l84 -49q21 -12 57.5 -21.5l73.5 -18.5t65 -18.5t31 -21.5q4 -13 -6 -25.5t-27 -23.5t-39 -21
t-42.5 -18t-37 -13.5l-22.5 -7.5q-41 -15 -78.5 -32.5t-71.5 -40t-63.5 -50.5t-54.5 -65q-3 -3 -7.5 -13.5t-6.5 -13.5v-6v-8q2 -16 6.5 -42.5l9 -52t7.5 -45t3 -20.5q1 -4 7 -16l13 -25.5l13 -25.5t8 -15q7 -15 10.5 -25t4.5 -19.5t0.5 -20.5t-0.5 -29v-14v-17t-0.5 -14.5
t-1.5 -7.5q-1 -12 -4.5 -33.5t-7.5 -43.5t-8.5 -39t-6.5 -20q-2 -5 -15.5 -19.5t-31 -31.5l-34.5 -32.5t-26 -22.5q-5 -4 -16.5 -10.5l-24 -13t-24.5 -11.5t-16 -6q-1 0 -7.5 -0.5t-14.5 -0.5t-16.5 -0.5t-13.5 -0.5q-17 0 -38.5 1.5t-41 8t-32.5 19t-13 34.5z" />
    <glyph glyph-name="asciitilde" unicode="~" horiz-adv-x="1120" 
d="M172 497q0 22 6.5 37t17.5 27.5t25.5 23.5l30.5 24q2 0 8.5 8t8.5 9q5 3 14.5 9.5l18.5 12.5l16 11t8 5h31q2 0 9.5 1t16.5 3l17.5 4t12.5 4q2 0 8 1t12.5 2.5t11.5 2.5t6 1q3 0 15.5 -2t28 -5t31 -6.5t23.5 -5.5q15 -4 22.5 -9l14 -9.5t16.5 -7.5t30 -3q29 0 58.5 8
t57.5 21.5t54 31t47 36.5h46q7 0 9 -11.5t2 -19.5v-6v-14t-1 -9.5t-3.5 -10.5l-6.5 -16q-13 -35 -26 -56.5t-31 -35.5t-43 -23.5t-62 -19.5q-18 -5 -30 -10t-24 -9t-25.5 -7t-33.5 -3h-52q-17 2 -30 8.5l-26.5 13.5t-29 12.5t-36.5 5.5q-34 0 -64 -3.5t-63 -17.5
q-14 -5 -26 -14l-25 -19t-27 -17t-31 -7q-8 0 -15 5.5t-12 14t-8 17.5t-3 17z" />
    <glyph glyph-name="exclamdown" unicode="&#xa1;" horiz-adv-x="543" 
d="M362 1190q0 -29 -7 -57t-31 -47h-9t-13.5 -0.5t-13.5 -0.5h-9q-21 0 -41.5 4t-36 14.5t-25 27t-9.5 42.5q0 55 24 81t81 26h19q12 0 24.5 -2t17.5 -10q2 -3 6.5 -11.5l9 -17.5l8.5 -17t5 -11v-21zM352 789v-21q0 -11 -1 -38.5t-2.5 -58t-3 -58t-2.5 -37.5q-10 -4 -10 -17
v-9q0 -14 4 -27.5t9.5 -27t10 -27.5t5.5 -27v-126q0 -2 1.5 -6t3 -8.5t3 -8.5t1.5 -5q1 -5 3 -14t3.5 -18.5t2.5 -17t1 -9.5v-81v-81q-2 -9 -8 -19.5t-14 -19.5t-17 -15.5t-18 -6.5q-2 0 -8 2l-12.5 4l-12.5 4t-8 2t-9 -4.5t-8 -7.5h-9h-10q-9 7 -21 15.5t-23 18.5t-20 21.5
t-13 24.5q-1 3 -1.5 11.5t-1 18.5t-0.5 19v13v16t0.5 20t1 17.5t1.5 8.5q0 4 2.5 22.5t6 40l6.5 40.5t4 24q0 4 -0.5 26.5t-0.5 42.5q0 22 1 26q0 3 1 10l2 14.5t2.5 14t1.5 9.5v357q0 7 1.5 21.5t3.5 30t4 28t3 16.5q3 14 15.5 26.5t28.5 12.5h5q51 -35 73 -76.5t22 -105.5
z" />
    <glyph glyph-name="cent" unicode="&#xa2;" horiz-adv-x="1058" 
d="M205 -171l28.5 59.5l29.5 64.5q7 14 9 27.5t4 17.5q0 11 5 17t10 10.5t9.5 9.5t4.5 13q0 24 -15 45.5t-36 41.5t-43 38t-36 35q-2 29 -10.5 58l-17.5 58t-16.5 57.5t-7.5 57.5q0 13 11 16q1 12 1 26v28q0 39 4 80t29 77q2 0 18 18l35 41l48 59q15 44 49 66.5t75.5 34.5
t86.5 20t81.5 24.5t60.5 47t24 87.5v14l17 17l52 116q3 7 12 7q39 0 61 -14t22 -43v-24l-76 -196q0 -4 12.5 -14l31 -24.5l40.5 -33t40.5 -41t31 -47t12.5 -51.5q0 -8 -7 -19.5t-16 -22.5t-18.5 -19t-14.5 -10q-20 -8 -34.5 -10t-25.5 -2q-18 0 -28 5t-14.5 13.5t-5.5 20
t-1 25.5q0 12 -1 23t-5.5 21t-14 18.5t-27.5 13.5q-11 -22 -24 -52l-25.5 -61.5l-23.5 -61.5t-17 -51v-30q-2 -4 -4.5 -13t-4.5 -11q-19 -31 -36 -63.5t-30.5 -66t-21.5 -69.5t-8 -74q0 -23 11 -35.5t28 -18.5t36.5 -7.5t36.5 -1.5h35l5 12l111 61q7 3 17 22l100 78
q9 8 13 9.5t15 1.5q21 0 33 -13t12 -34q0 -14 -9.5 -27.5t-22 -27.5t-24.5 -29t-17 -32q-36 -30 -61.5 -54.5t-51.5 -44t-56.5 -34.5t-76.5 -26q-5 -1 -15.5 -4.5t-22.5 -8t-24 -8t-21 -3.5q-22 0 -39 8.5t-37 8.5q-18 0 -34.5 -10t-30 -25t-22 -32.5t-11.5 -31.5v-45
q-3 -9 -14 -27.5t-25 -37.5t-29 -33t-27 -14h-7zM340 337q8 -4 13.5 -4.5t10.5 -0.5q27 0 35 11.5t11 26t6.5 29t21.5 20.5q4 6 8 29.5t4 44.5q11 22 26.5 57t29.5 72.5t24 72.5t10 56q0 11 -15.5 13t-32.5 2h-28q-44 0 -74 -19t-49 -49.5t-27.5 -69t-8.5 -76.5
q0 -21 8.5 -35t8.5 -33l-12 -50q0 -26 10 -48.5t20 -48.5z" />
    <glyph glyph-name="sterling" unicode="&#xa3;" horiz-adv-x="1418" 
d="M497 249v33q0 2 -5 6t-7 4q-3 1 -11 3t-17 4t-16.5 4t-10.5 3h-134q-23 7 -28.5 16t-5.5 31v17q0 9 2 17.5t10 15.5q3 3 9 8l13 10.5l13 10t8 6.5q8 2 27 5.5t40 7t40 6t26 3.5h26h9q1 0 6.5 4l12.5 9t14 11t12 9q4 3 12.5 11t8.5 10l12.5 24.5l17.5 34l16.5 33
t10.5 20.5q1 3 4 16l6.5 28l6.5 28t4 16t6 13l10.5 21.5l10.5 21.5t5 12q3 6 11 30.5l18 52.5l18 52.5t11 30.5q0 2 3 7t7 11t7.5 10.5t4.5 6.5q20 40 34 83.5t33 82.5q1 2 4 7t7 10.5t7 10.5t3 6l7.5 13t4.5 10q1 1 2.5 9t3 17.5t3 17.5t2.5 9q2 3 11.5 13t21 21l21.5 21
l13 13q1 2 4 8.5l6.5 14t7 14t5.5 8.5q0 1 5 6l10.5 10.5l10.5 10.5l7 7q1 1 4 7.5l6.5 14l6.5 14t3 8.5l16 16l26.5 26l28 27.5t19.5 20.5q2 1 10.5 4.5t10.5 5.5q3 0 7.5 5t6.5 5q15 12 29.5 21l29.5 18l30.5 19t33.5 24q30 11 57 15t52 4q29 0 56 -3t56 -8q15 -9 27 -18
l21.5 -15.5l17.5 -12.5q2 0 5.5 -4.5t4.5 -6.5q7 -7 16.5 -17.5t18.5 -21.5q11 -12 22 -26v-23q0 -22 -1 -38.5t-9 -39.5q-5 -10 -25 -19.5t-44 -17.5t-46.5 -13t-31.5 -5q-23 0 -41.5 11t-35 25l-32.5 26.5t-35 15.5h-5t-12 0.5t-13.5 0.5h-10.5q-7 0 -21 -0.5t-15 -0.5
q-2 0 -6.5 -3l-10 -7l-10.5 -8t-6 -5q-17 -10 -32.5 -25.5t-30 -33.5t-26.5 -37l-22 -35l-16.5 -30.5l-21 -39l-19 -35.5t-9.5 -20q-8 -14 -11 -27t-4.5 -26t-3 -27.5t-5.5 -31.5q0 -2 -3 -8t-7 -13l-8 -13.5t-5 -8.5q0 -2 -1.5 -10t-3 -17.5t-3 -18t-2.5 -10.5q-1 -1 -4 -6
l-6.5 -10.5l-7 -10.5t-4.5 -6q-25 -44 -37.5 -87t-30.5 -89q-20 -55 -37.5 -108.5t-17.5 -113.5v-12q0 -8 2 -15t10 -9h66q22 0 40 2l35 4l34.5 4t38.5 2q11 0 27.5 -3t32 -9.5t26.5 -17t11 -25.5q0 -10 -5.5 -21t-14 -22t-18 -20.5t-17.5 -16.5q-18 2 -35.5 3t-35.5 1
q-56 0 -110.5 -7t-109.5 -18q-4 -3 -13.5 -12t-20 -20l-19.5 -21t-12 -14q-3 -3 -11 -19.5l-18 -35.5t-18 -36t-11 -21q0 -2 -5 -8t-10.5 -13.5l-10.5 -14t-6 -8.5q-1 -1 -2.5 -6l-3 -10.5l-3 -10.5t-2.5 -6q-1 -5 -9 -21l-18 -34.5l-18.5 -34.5t-11.5 -20q-1 -3 -5.5 -15
l-9.5 -25.5t-10 -24.5t-6 -13q-2 -5 -5.5 -12l-7 -14l-6.5 -13l-4 -8q-5 -6 -12.5 -12.5l-15 -13.5t-13 -15.5t-5.5 -18.5v-3q0 -3 3 -3q16 -22 36.5 -36.5t50.5 -18.5h57h21q8 0 21.5 -0.5t27 -3.5t25 -10t16.5 -19q6 -1 23.5 -3t37.5 -4t37.5 -3.5t23.5 -1.5h38q46 0 83 4
t67.5 16.5t55 37t45.5 65.5q8 16 10 33t2 34v16q0 25 -5.5 44.5t-14.5 36.5t-21.5 33.5t-25.5 35.5l-13 18t-15 22l-12 19t-5 9q-1 4 -1 8q-1 3 -1 6v5q0 17 3 27.5t21 10.5l6 -2q2 -1 5 -1q2 -1 10 -6l18.5 -12l21.5 -14.5l17 -11.5q0 -1 5 -4.5t7 -5.5q4 -7 17 -25
l27.5 -37.5l27 -37t17.5 -23.5q0 -4 1 -13.5t2.5 -20.5t2.5 -21t1 -14q0 -6 0.5 -17l1 -21.5t1 -19t0.5 -10.5q-1 -10 -4.5 -27.5l-7 -34.5t-7 -30.5t-3.5 -16.5q-2 -3 -11.5 -14.5l-20.5 -24l-21 -23.5t-13 -14q-4 -4 -12 -17t-11 -17q0 -2 -3.5 -8.5t-7 -14t-7.5 -14
t-6 -7.5q-1 -1 -5.5 -3t-9.5 -3.5l-10 -3t-6 -2.5q-3 0 -12.5 -5l-20.5 -10.5t-20.5 -11t-12.5 -6.5q-3 0 -11.5 -2t-18 -3.5t-18 -3t-9.5 -1.5q-2 -2 -11 -6.5t-11 -7.5q-5 0 -25.5 1t-38.5 1q-21 0 -25 -2q-2 0 -8.5 -1.5t-13.5 -3.5t-13.5 -3.5t-7.5 -1.5q-3 1 -9.5 4.5
l-14 7.5l-14.5 7.5l-9 4.5h-46h-19q-38 9 -74 22.5t-72 25.5t-73.5 21t-78.5 9q-3 0 -7 -0.5t-8 -0.5q-4 -1 -9 -1q-2 0 -6 -5t-7.5 -11t-7 -11t-3.5 -6q-30 -43 -68.5 -71.5t-92.5 -28.5h-26q-3 1 -9 4l-13.5 6.5l-14.5 6.5t-10 5q-3 3 -9 8t-11 10.5l-9 10t-4 6.5
q-8 30 -8 57t8 54q0 1 4 5l9 9l11 10.5t9 8.5l16.5 11l21 13.5l19 12t11.5 6.5q3 2 16 4t28.5 4t29 3t16.5 1q1 2 10 6t10 4q2 1 10 4.5t17.5 7t18 7.5t10.5 6q1 0 5 8t7 12l34 82.5t32 83.5q10 32 16.5 63t15.5 60l31.5 83t15.5 85z" />
    <glyph glyph-name="currency" unicode="&#xa4;" horiz-adv-x="1037" 
d="M115 339q0 10 13 31t30.5 43t35.5 40t28 24v13q0 1 2.5 10.5t2.5 13.5q-3 15 -10 31.5l-14.5 34.5t-13 38t-5.5 43v66q6 5 14 23t15.5 39t12.5 40t5 27q0 10 -10.5 23.5t-24 27t-27 25t-18.5 19.5q-3 1 -10.5 9.5l-16 19l-16 20t-9.5 12.5q7 32 32 46.5t51 14.5
q10 0 17 -4.5t13.5 -10t13 -10t17.5 -5.5q5 -13 13 -28t19.5 -28.5t25.5 -22.5t32 -9h12q19 8 41 18.5t45 19.5t47 15t47 6h14q10 0 12 -2q4 -6 24.5 -15t46 -17t49.5 -14t34 -6q13 0 24 6t20 14t16.5 17t15.5 15l71 64h29q2 0 7 -4.5t10.5 -11t10.5 -13.5t7 -11
q0 -1 0.5 -13t0.5 -16l-1 -30q-3 -6 -9.5 -10.5t-15 -8.5l-16.5 -7.5t-13 -7.5q-4 -3 -13.5 -14t-19.5 -24.5t-18 -25.5t-9 -17v-2q0 -16 9.5 -33.5l20.5 -36.5t20.5 -38.5t9.5 -40.5l-10 -92q-2 0 -5 -8.5t-6 -20l-6 -22t-4 -13.5q-9 -6 -13 -10t-6 -5q-7 -6 -7 -18
q0 -8 1.5 -19t4 -20t5.5 -15.5t6 -5.5l30 -12q18 -12 35 -40.5t30 -54.5q5 -5 6 -8.5t1 -5.5q0 -9 -6 -19.5t-15 -19t-19.5 -14.5t-19.5 -6q-5 2 -12.5 4.5t-14 5.5l-11 5l-4.5 2l-97 92q-4 2 -10.5 4.5t-11.5 2.5h-2q-21 -3 -40.5 -12l-39.5 -18.5t-42 -16.5t-49 -7
q-4 0 -7.5 1.5t-8.5 9.5h-12q-43 0 -77 8.5t-61 20.5q-10 4 -14 7.5t-6 6.5t-5 5t-10 2q-10 0 -26 -19l-37.5 -42.5t-47.5 -42.5t-55 -19q-20 4 -34 20t-14 37zM393 509l23 -25q18 -5 34 -9q14 -4 28 -7.5t23 -5.5h20q66 0 111.5 25.5t77.5 85.5l7.5 11l12.5 17.5l13.5 19
t9.5 14.5l-9 43l9 36v13q-8 21 -18 36.5t-20.5 28.5l-21.5 26.5t-21 30.5q-2 2 -3.5 4.5t-3.5 2.5q-16 3 -29 8t-25.5 12l-26.5 15.5t-33 16.5q-11 -2 -33.5 -6.5l-47 -9t-46.5 -9t-31 -6.5q-15 -13 -27.5 -32t-31.5 -28l-48 -106v-86q5 -3 16 -18.5t21.5 -33.5t18.5 -34.5
t8 -21.5z" />
    <glyph glyph-name="yen" unicode="&#xa5;" horiz-adv-x="1493" 
d="M446 125q0 13 8.5 26t22.5 13h72q2 8 7.5 11t11.5 3q11 0 17 0.5t9 1.5t5 1.5t7 0.5q15 0 25 12t16 28t8.5 32.5t2.5 25.5l2 44q0 14 -1 29t-6 27t-14.5 19.5t-25.5 7.5q-39 2 -60.5 3.5t-33 3t-15.5 2.5t-7 1q-22 0 -29 -3t-7 -7q-22 -3 -42 -4.5t-41 -1.5q-43 0 -85 6
q-11 0 -13 14t-2 25q0 7 1.5 19t6 23.5t11.5 20t19 8.5q27 0 42 -0.5t22.5 -1t10.5 -1t6 -0.5h21q7 0 17.5 1t22.5 2q13 0 19 -5l59 12l46 -14q10 0 22.5 1.5t22.5 6t17 13t7 21.5q0 11 -2 34.5t-8 47.5t-17.5 42t-30.5 18q-5 0 -16.5 -8t-13.5 -8q-4 0 -20 2t-23 3
q-2 0 -5.5 4.5t-3.5 6.5h-81q0 -11 -16 -11l-74 11l-47 -11q-4 5 -12 17.5t-8 26.5q0 10 5 21.5t12.5 22.5t16 22t16.5 20q4 2 7.5 2h6.5q14 0 22.5 -4.5t22.5 -4.5h12q11 0 17.5 2t13.5 10h109q8 0 8 9q0 2 -5.5 10.5t-14 19.5l-18.5 24l-19 24.5l-15.5 20.5t-8.5 13
l-28.5 65.5t-37.5 59.5l-26 29l-17 30q-8 13 -23.5 33.5t-33.5 41t-36 37.5t-31 24q-21 12 -47.5 13.5t-50 6t-39.5 17.5t-16 48q0 13 10.5 22.5t25 15.5t30 8.5t26.5 2.5q10 0 17 -3t12 -6.5l10.5 -7.5t14.5 -6q1 0 10.5 2.5t11.5 4.5l50 -7l45 23l116 -11l75 11
q14 0 31.5 -3.5t32.5 -12t25.5 -22t10.5 -32.5v-12q-11 -6 -24 -14t-27.5 -15t-29.5 -11.5t-28 -4.5v-3q0 -38 16.5 -70t38 -62l43.5 -61t33 -65l21 -15q8 -5 9 -10.5l5 -26.5l8 -16l10.5 -21l10.5 -20.5l7 -13.5l11 -21t14.5 -25t15.5 -21t15 -9q5 0 17 12q27 28 43 50
t28.5 43l26 45t35.5 56q14 22 37.5 49t46 56t39 60.5t16.5 62.5q0 8 -7.5 14.5t-18 11.5t-21 8t-16.5 3l-31 8l-16 20.5l-9 11t-3.5 5l-0.5 1.5q0 9 5.5 18t13.5 17.5t17 15.5t17 12q14 0 21 -1t14 -3q4 0 9.5 3t9.5 8q14 1 25 2t22 1q13 0 26.5 -1l26.5 -2q10 -8 14 -9.5
t16 -1.5q2 0 11 5.5t13 5.5q2 0 10 -1.5t17 -4t18 -4t12 -1.5q4 0 11.5 3t9.5 8q34 0 67 -7t49 -9q13 -7 24.5 -25t11.5 -34q0 -10 -14.5 -19.5t-33 -16.5t-36 -11.5t-23.5 -4.5l-42 11l-52 -37q-30 -24 -50.5 -45.5t-37 -43t-32 -45l-35.5 -52.5q-20 -28 -45 -55.5
l-49.5 -55.5t-46.5 -57t-36 -61q6 -5 19 -8.5t29 -5.5t34 -3.5t34 -1.5h37q14 0 27 6t30 6q43 0 64.5 -23.5t21.5 -64.5q0 -16 -1 -22.5t-8 -8.5q-27 -5 -42 -10.5t-37 -5.5q-32 0 -62 8t-63 8q-22 0 -42 -8t-41 -8l-46 11l-5.5 -11.5l-7.5 -16t-6.5 -15t-3.5 -9.5l4 -111
q7 0 11.5 3.5t7.5 8t6.5 8t8.5 3.5q7 0 18.5 -3.5t23.5 -8.5l23.5 -10t19.5 -8q14 3 26.5 3.5t23.5 0.5l50 -2h38t37 -2q6 0 17 -5t22 -11.5t19.5 -12.5t8.5 -7v-59q0 -3 -8 -7t-18 -7l-18.5 -5.5t-9.5 -2.5h-67l-118 10q-8 0 -14 -2.5l-13.5 -5.5t-17.5 -5.5t-24 -2.5
q-2 0 -12.5 3t-14.5 3q-5 0 -13 -2t-10 -4l-7 -76q0 -28 3 -46.5t10.5 -32.5t20 -27t32.5 -29l100 -14q10 -2 22 -5.5t22.5 -10t17 -15.5t6.5 -22q0 -16 -8 -29t-22 -13q-20 -11 -39 -13t-37 -2q-47 0 -98 15q-23 -11 -51 -13t-57 -2h-45l-109 7q-13 0 -22 -3.5t-17 -7
l-16 -7t-19 -3.5q-15 0 -29.5 5.5t-26 15t-18.5 23t-7 29.5z" />
    <glyph glyph-name="brokenbar" unicode="&#xa6;" horiz-adv-x="558" 
d="M178 -130q0 20 -8.5 41t-8.5 35q0 23 8.5 44t8.5 45q0 10 -2 18t-5 16q-10 20 -10 43q0 38 10.5 76.5t10.5 79.5v17q18 23 38 36t46 13q25 0 47.5 -8.5t39.5 -24.5t26.5 -37.5t9.5 -47.5q0 -11 -3.5 -24.5t-3.5 -27.5q0 -11 0.5 -23t3.5 -23q3 -29 3 -56v-33
q0 -13 -1 -23t-6 -18q-5 -18 -6 -37t-1 -36q0 -18 1 -34.5t6 -36.5q9 -15 10.5 -23.5t1.5 -24.5q0 -14 -2.5 -33t-10 -36t-20 -29.5t-31.5 -12.5q-30 0 -61 7t-56 22.5t-41 40t-16 60.5v3q0 1 3 7l6.5 12.5l6.5 12t3 6.5zM178 981q0 20 -8.5 41.5t-8.5 39.5q0 23 8.5 43.5
t8.5 43.5q0 9 -2 16l-5 18q-5 9 -7.5 20t-2.5 22q0 39 10.5 75.5t10.5 78.5v22q18 21 38 32.5t46 11.5q25 0 47.5 -8t39.5 -22.5t26.5 -35.5t9.5 -47l-7 -54q0 -13 0.5 -24.5t3.5 -26.5q3 -24 3 -54v-33q0 -9 -1 -21t-6 -20q-5 -19 -6 -37.5t-1 -32.5q0 -18 1 -36t6 -36
q9 -14 10.5 -24t1.5 -23q0 -14 -2.5 -33.5t-10 -37.5t-20 -30.5t-31.5 -12.5q-30 0 -61 7t-56 22.5t-41 41t-16 62.5q0 3 3 9l6.5 13l6.5 12.5t3 7.5z" />
    <glyph glyph-name="section" unicode="&#xa7;" horiz-adv-x="742" 
d="M62 -202q0 28 14.5 45t36 26.5t47.5 13t49 3.5q16 0 31 -3.5l30 -7l30.5 -7t32.5 -3.5h19q2 3 6.5 11.5l9 17.5l8.5 17.5l6 12.5v41v18q0 18 -2 41t-9 35q-2 3 -10.5 11l-18.5 17.5l-18.5 17.5t-9.5 11q-3 3 -8.5 11l-12 17t-11.5 17.5t-6 11.5q-1 1 -2.5 5.5t-3 9.5
t-3 9.5l-1.5 4.5q-3 2 -10.5 5.5t-8.5 5.5q-17 11 -27.5 24t-17.5 28t-12.5 31t-12.5 33q-1 3 -6.5 13.5l-12 23.5t-11.5 24.5t-6 14.5q-4 5 -8 16t-4 13q0 4 1 24t1 39q0 20 -2 24q0 2 -2.5 9t-6 15l-6.5 15t-4 9v5v4q1 3 2.5 10t3 15t2.5 14.5t1 8.5q13 48 20 93.5
t21 90.5q0 2 2.5 7.5l5.5 12t6 11.5t3 7l57 135.5t69.5 121.5t99 88t145.5 34q24 0 48 -6t43 -19.5t30.5 -34t11.5 -48.5q0 -86 -88 -86q-7 1 -12 3t-9.5 3.5t-6.5 3.5q-4 1 -18 6t-30.5 11.5l-31 12.5t-17.5 8h-5q-4 0 -21 -9l-36.5 -20t-35.5 -22.5t-18 -15.5t-5 -14.5
t-3 -15.5q-3 0 -3.5 -3.5t-0.5 -4.5q0 -36 17 -67.5t41 -60.5t51 -55t48 -51q87 -105 96 -240v-35v-92l1.5 -5.5t3.5 -12t3.5 -12.5t1.5 -8v-13q0 -21 -8.5 -42t-10.5 -42q-1 -1 -2.5 -9t-3 -18t-3 -18.5t-1.5 -11.5q-8 -29 -20 -63t-29 -61q-14 -25 -19 -52.5t-19 -54.5
q-26 -44 -52.5 -73.5t-63.5 -61.5q-21 -19 -42.5 -41t-45.5 -40.5t-51 -31t-60 -12.5q-44 0 -70 28t-40 69v9zM209 626q1 -2 3.5 -8.5l5.5 -14.5l5.5 -15t4.5 -10q0 -3 -1 -20.5t-1 -33.5v-14.5t2 -7.5q0 -2 5 -7.5t11.5 -11.5l13 -11.5t8.5 -7.5q19 -24 33.5 -52l29.5 -56
t33.5 -52.5t45.5 -42.5q2 0 3.5 -1t2.5 -1q25 0 39.5 12t22 30t9.5 39.5t2 41.5q0 25 -7.5 46t-18.5 40.5l-22.5 39.5t-18.5 42q-2 2 -5 10.5t-6 18.5l-5.5 18.5t-2.5 9.5q-2 2 -6.5 7.5l-9.5 12l-9 12t-5 6.5q-1 3 -5.5 11.5t-9 18.5l-8.5 18.5t-4 10.5q-2 1 -7 7.5l-11 14
l-13 15.5t-11 13q-5 8 -6.5 9.5t-12.5 1.5q-8 0 -15.5 -6t-14 -14.5t-11.5 -17t-7 -14.5q-2 -5 -6 -16.5l-8.5 -25.5t-8 -26.5t-3.5 -18.5z" />
    <glyph glyph-name="dieresis" unicode="&#xa8;" horiz-adv-x="1076" 
d="M266 1256q0 11 2.5 20.5t4.5 20.5q8 23 19.5 39.5t40.5 16.5q23 0 44 -8t37 -21.5t25.5 -33t9.5 -41.5q0 -14 -3.5 -31t-11 -31.5t-19 -24.5t-27.5 -10q-40 0 -68 15.5t-51 46.5zM627 1251q0 9 2.5 19.5l4.5 19.5q4 25 18.5 44t43.5 19q24 0 45 -8.5t36.5 -23t25 -34
t9.5 -40.5q0 -15 -4 -32.5t-12 -32t-20 -24.5t-28 -10q-39 0 -67 18.5t-49 44.5z" />
    <glyph glyph-name="copyright" unicode="&#xa9;" horiz-adv-x="1557" 
d="M499 1045q17 17 31 35t35 32q22 20 49.5 30.5t50.5 23.5q42 0 80.5 9.5t73.5 9.5q14 0 26 -1.5t26 -3.5q37 -13 67.5 -20t60.5 -10q16 0 20.5 7t12.5 18q26 0 26 -25l5 -45v-57q0 -15 5.5 -35t5.5 -36v-13.5t-2 -13.5q-3 -11 -7.5 -17.5t-6.5 -8.5t-5 -2q-11 0 -17.5 9
t-8.5 14q0 10 -4.5 13t-4.5 14q-6 21 -17 40t-30 33q-18 13 -33 32t-31 30q-27 17 -52 24t-50 7q-7 1 -25 -4t-37.5 -12t-35 -14t-17.5 -8q-35 -23 -67.5 -53t-57.5 -75q-13 -40 -16 -62.5t-3 -39.5q0 -22 -1.5 -39t-5.5 -35l-3 -37l15 -114q21 -35 36.5 -56l25.5 -33.5
t15.5 -20.5t7.5 -16q25 -14 41 -25l25.5 -18t13.5 -10.5t5 -3.5l71 -26q24 -1 38 -1.5t22 -1t11.5 -1t5.5 -0.5q4 -2 17.5 2.5t27.5 12t24 16t8 13.5q9 1 20.5 12t22 24.5t19.5 26.5t14 18q3 4 7.5 11t10 14t11 12.5t10.5 5.5q10 0 14.5 -10.5t4.5 -15.5q-2 -26 -4 -36
q-2 -7 -4 -12q-15 -33 -25 -50t-19.5 -29t-22.5 -23t-34 -31q-8 -9 -13.5 -12.5t-22.5 -5.5l-56.5 -24t-32 -13t-17 -5t-11.5 -1q-10 0 -22 1t-30 3q-7 0 -19.5 1.5l-26 3t-24.5 3t-15 2.5q-14 -5 -33 1.5t-37 16t-31 18.5t-13 11q-38 36 -58 57t-22 26q-20 40 -37 65
t-25 51v3t-1 14l-3 34t-5 63l-8 71q6 48 10 85.5t12 57.5l12 40q14 11 21 31.5t14 36.5zM195 362l-37.5 68t-33.5 71.5t-24 74.5t-9 76v42q0 49 1.5 98.5t9.5 97.5t24 95t45 91l124 196q33 40 77.5 76.5t92.5 64t96.5 43.5t89.5 16l68 -12q16 0 25.5 1.5t28.5 10.5h81
q34 0 62 -2t54.5 -8.5t52 -20.5t54.5 -38l111 -114l67 -33q33 -22 46 -54.5t20.5 -67t16 -68.5t30.5 -59q21 -23 36 -35t25.5 -23.5t17.5 -27t12 -46.5q2 -21 4 -48.5t3 -56t1.5 -56t0.5 -50.5v-29q-2 -16 -7 -36.5t-12.5 -41.5t-16.5 -41.5t-19 -36.5q0 -2 -2 -5t-4 -7
q-5 -21 -14.5 -55.5t-21.5 -70t-24.5 -64.5t-23.5 -40q-7 -2 -12 -5q-5 -2 -8.5 -4t-4.5 -3q-33 -13 -57.5 -30.5t-45.5 -35.5l-41 -35.5t-44 -30.5q-23 -12 -51 -18.5t-56.5 -12t-56.5 -13.5t-52 -23h-97q-81 0 -141.5 11t-109 31t-89 49.5t-80.5 67l-83.5 82t-98.5 95.5z
M181 787q0 -22 6 -56t16.5 -74t24 -82.5t27.5 -81.5q16 -33 37 -64t43 -57.5t43 -48t38 -34.5l48.5 -35.5t54 -38.5t61 -36t68.5 -27q47 -13 93.5 -17.5t91.5 -4.5q34 0 61 0.5t50 0.5q16 0 35 7.5t48 20.5q-2 0 4.5 3.5l15.5 8.5l17 9.5t10 6.5q23 12 37 18.5t25 15
t22 20.5t28 34q21 28 41.5 48t38 40.5t30.5 45t18 62.5q3 2 6.5 13.5t6.5 25.5q4 16 6 35l14.5 45t11.5 39.5t7.5 40.5t2.5 50q0 33 -2 64t-9.5 58.5t-22.5 50t-42 38.5l-15 19q0 48 -7.5 79t-21 54t-31.5 44t-37 48q-34 41 -62.5 65t-54.5 38t-50.5 21l-51.5 15t-58 20
t-69 36l-190 21q-1 0 -16.5 -6.5t-37 -16.5l-44 -21.5t-37.5 -21.5q-32 -21 -67.5 -57.5t-71 -82t-68 -98t-58.5 -105.5t-43 -103.5t-21 -91.5z" />
    <glyph glyph-name="ordfeminine" unicode="&#xaa;" horiz-adv-x="884" 
d="M552 957q-6 11 -7 25t-1 28q-11 9 -13 19.5t-4 39.5q-2 2 -8.5 8t-9.5 8q-6 6 -20 7t-23 1q-5 -1 -17.5 -1t-44.5 -2h-18q-18 0 -39 -13t-32 -29q-1 -2 -1 -4.5t-1 -5.5q-1 -4 -1 -7q-1 -3 -2.5 -5.5t-3 -8.5t-3.5 -16t-5 -27l7 -33q0 -4 3.5 -8t9 -7.5t10.5 -5.5t8 -1
q4 0 11.5 -0.5t14.5 -3t12 -7.5t5 -14t-6.5 -17t-15.5 -10q-3 -1 -11.5 -2.5t-17.5 -3.5l-17.5 -4t-12.5 -2l-17 7l-106 -7q-18 2 -27.5 6.5t-17.5 22.5q0 12 7.5 20.5t18.5 14.5t22.5 10.5t19.5 9.5q9 7 16.5 17t12.5 21q2 2 5.5 12.5t3.5 12.5q8 20 19 37t19 34q2 2 7 18
t14 58q0 1 5.5 16t14.5 48q5 15 11.5 25.5t13.5 24.5l17 64q0 5 2.5 18.5t2.5 17.5v56q0 5 5.5 15t11.5 14l63 33l17 19q13 0 21.5 -10t13.5 -21q0 -3 2.5 -11.5l5 -17.5t5 -16.5t2.5 -10.5l5 -29q11 -16 18 -36.5t12 -41.5q2 -16 2 -17q0 -2 1 -2q3 0 6 -2.5t7.5 -11
t11 -24l17.5 -41.5q6 -7 13.5 -25t7.5 -29q5 -21 13.5 -41.5t24.5 -52.5q2 -11 5 -19t5 -17q0 -2 1.5 -8.5t3.5 -14l3.5 -13.5t1.5 -7q2 -8 8 -17.5t11 -12.5q1 0 5.5 -2l10 -4.5l10 -4.5t6.5 -2q9 -5 16 -7.5t12.5 -6t8 -9t2.5 -17.5q0 -11 -11.5 -19t-27 -12.5t-30.5 -6.5
t-22 -2q-20 0 -35.5 5t-35.5 5l-57 -6q-7 0 -17.5 1t-21 4t-18 8.5t-7.5 15.5q0 13 12 19t26.5 10t26.5 10t12 21v6zM416 1142q1 -1 6 -2t11 -2.5t12 -2.5t9 -2l48 2l-14 55q-1 7 -2 18t-1 13q0 20 -6.5 31t-14.5 28q-1 5 -9 12t-13 12q-4 2 -9 2q-7 0 -13.5 -4.5
t-14.5 -4.5q-6 0 -12.5 -10.5t-12.5 -25t-10 -28.5t-4 -20v-56q2 -5 5.5 -12.5t9.5 -7.5q1 0 6.5 1t11.5 1.5t11 1.5t6 1z" />
    <glyph glyph-name="guillemotleft" unicode="&#xab;" horiz-adv-x="930" 
d="M298 240h-2q-7 0 -15.5 9t-17 20l-16 21.5t-11.5 13.5l-26 9q-14 7 -34.5 21t-39.5 31.5t-33 37t-14 36.5q0 19 12.5 37.5t31 34t39.5 27.5t38 19q13 2 25.5 14t24 26l21 25t15.5 11q3 4 19 18.5l34 30t33.5 27.5t19.5 12q1 0 10 -1.5t19.5 -3.5t19.5 -5t11 -7
q0 -7 -6 -25t-7 -29q-7 -25 -19.5 -41t-27 -30.5t-29 -31.5t-25.5 -45q-6 -1 -12.5 -8.5t-12.5 -17.5t-11 -20t-9 -15q4 -5 9.5 -13.5l11.5 -17.5t12 -15.5t11 -6.5q6 -3 12.5 -11.5t12.5 -18l11.5 -18t8.5 -10.5l13 -15q11 -11 15.5 -17.5t9.5 -15.5l15 -29q7 -14 11.5 -21
t8 -11.5t6 -8.5t5.5 -11v-30q-15 -13 -22 -16t-17 -3h-51q-6 19 -16.5 30t-23 19.5t-25.5 16.5t-23 22zM635 249h-3q-6 0 -14.5 8.5t-16.5 20l-16 22t-12 13.5l-26 12q-14 5 -35 18.5t-40.5 31.5t-33.5 38.5t-14 38.5q0 19 11 35.5t28 30t36.5 25t37.5 19.5q17 4 31.5 17.5
t27 28l22.5 25.5t17 11q2 3 17 17t33 29l34 27.5t20 12.5q1 0 10 -1t19 -3t19 -5t11 -7q0 -5 -1.5 -12t-3.5 -15t-4 -14.5t-3 -9.5q-9 -27 -21.5 -43.5t-25.5 -31l-26.5 -31t-23.5 -43.5q-8 0 -15 -8t-13 -18t-11 -20.5t-9 -14.5q4 -5 9 -14.5t11 -18.5t12 -15.5t11 -6.5
q6 -2 12.5 -10.5t12.5 -19t11.5 -19t8.5 -10.5l18.5 -20.5t10 -12.5t5.5 -9t4 -10l16 -21q5 -15 9 -22.5t7.5 -12l7 -9t7.5 -13.5v-29q-16 -12 -22.5 -14.5t-17.5 -2.5h-50q-6 18 -17 28.5t-24 18.5l-26 16.5t-22 22.5z" />
    <glyph glyph-name="logicalnot" unicode="&#xac;" horiz-adv-x="1254" 
d="M106 472q0 3 5 8.5t9 7.5q45 34 90 44.5t99 10.5q5 0 18.5 -1t16.5 -1q1 0 7.5 -1t14 -2t13.5 -2t8 -1q3 0 9.5 1t14 2t14 2t8.5 1q6 1 17 2.5l22 3t19.5 2.5t9.5 1h102q1 0 7.5 1t14 1.5t14 1.5t7.5 1q3 0 14 2t16 2q40 0 81.5 -4.5t80.5 -4.5q18 0 31.5 1t24.5 1.5
t20 1.5t19 1q3 1 17.5 4t31 6t31 5t19.5 3h19q18 0 35.5 -3t31 -11t22 -21.5t8.5 -34.5q0 -6 -1 -13.5t-2.5 -15t-5 -13.5t-7.5 -8q0 -6 -0.5 -11.5t-0.5 -12.5q0 -18 1.5 -34t1.5 -32q0 -5 -1 -10t-1 -9q-1 -8 -1 -14.5v-14.5v-33v-15.5t-2 -12.5q-7 -32 -19.5 -46
t-22.5 -14q-17 0 -27 52q-2 6 -2 14v17v17t-2 19q-2 16 -3.5 32.5t-3.5 36.5l-2 39t-3 43q-14 0 -30.5 0.5t-35.5 0.5l-332 -7q-1 2 -9.5 4.5t-12.5 2.5l-1 2h-1q-5 0 -5 -2l-63 -11.5t-63 -5.5q-37 0 -69.5 9.5t-67.5 9.5l-4 -2q-8 0 -19 -1t-22 -2.5t-19 -2.5t-9 -1
q-2 0 -6.5 -4.5t-9.5 -10l-9.5 -10.5t-5.5 -6q-7 -5 -19 -6t-22 -1q-30 0 -53 7.5t-43 30.5q-4 2 -5.5 7.5t-1.5 6.5z" />
    <glyph glyph-name="registered" unicode="&#xae;" horiz-adv-x="1557" 
d="M195 368l-37.5 68t-33.5 71.5t-24 75t-9 78.5v38q0 49 1.5 99t9.5 98.5t24 95t45 89.5l124 196q33 40 77.5 76.5t92.5 64t96.5 43.5t89.5 16l68 -10q16 0 25.5 2t28.5 8h81q34 0 62 -2t54.5 -8.5t52 -20.5t54.5 -38l111 -112l67 -33q33 -22 46 -54.5t20.5 -67.5t16 -69.5
t30.5 -59.5q21 -23 36 -34.5t25.5 -22t17.5 -26t12 -47.5q2 -22 4 -49.5t3 -56t1.5 -56.5t0.5 -50v-28q-2 -16 -7 -36.5t-12.5 -42t-16.5 -42.5t-19 -37q0 -1 -2 -4t-4 -8q-5 -21 -14.5 -55t-21.5 -69.5t-24.5 -65t-23.5 -40.5l-12 -4q-5 -2 -8.5 -3t-4.5 -1
q-33 -15 -57.5 -33t-45.5 -36.5l-41 -35.5t-44 -30q-23 -12 -51 -18.5l-56.5 -12.5t-56.5 -14t-52 -23h-97q-81 0 -142 10.5t-109.5 31t-89 50t-80 67l-83 82.5t-98.5 96zM177 794q0 -23 3 -56.5t10.5 -72.5t20 -81.5t32.5 -83.5q17 -35 39 -66.5t45.5 -58t46 -47.5
t40.5 -34l47.5 -36.5t55 -38.5t62.5 -35.5t69 -27.5q45 -14 92.5 -18.5t92.5 -4.5q35 0 61.5 1t47.5 1q29 0 55 14t56 33q5 4 11.5 4t10.5 4l38 19t25 15t21.5 20.5t26.5 35.5q21 28 42.5 48t39.5 40t31 45t18 63q2 2 5.5 14t5.5 26q3 16 5 34l16 47t12 39t7.5 40.5
t2.5 50.5q0 36 -2 67.5t-9.5 59t-22 50.5t-40.5 41q-12 15 -14 21.5t-2 12.5q0 41 -8.5 69t-23 50.5t-33.5 43.5t-39 48q-33 44 -60 68.5t-52.5 37.5t-50 19l-51.5 13t-58 18.5t-70 35.5l-190 19q-1 0 -17 -6.5l-37.5 -15.5t-44.5 -20t-38 -20q-32 -21 -68 -58t-71.5 -83
t-68.5 -99t-59.5 -106.5t-43.5 -104.5t-20 -94zM985 432q-32 26 -57 59t-43 70q-9 28 -21 39.5t-17 20.5l-10 23l-7.5 7.5t-12.5 11.5l-13.5 11.5t-10.5 7.5q0 16 -13 31t-31 26.5t-37 18.5t-31 7q-5 0 -13.5 -1.5t-16.5 -4.5t-13.5 -8.5t-5.5 -13.5v-38q0 -4 1 -11t3 -13
l-5 -87v-76q2 -18 19 -21l22 -15q11 -8 30.5 -9.5t38.5 -3.5t33 -7.5t14 -21.5q0 -7 -5.5 -13.5t-14 -11t-18 -7t-17.5 -2.5q-14 0 -27 5l-27 10q-21 4 -40 6t-41 6l-30 -1l-60 -4q-35 1 -54 2t-28 2t-11 2.5t-2 3.5q0 12 12.5 19.5t28.5 12.5t30.5 8.5t19.5 8.5q3 3 3.5 10
t2 14.5t4 12.5t8.5 4q6 16 8 30.5t2 30.5l-3 61l7 91l-7 54q2 15 3.5 24.5t2 14.5t1 8.5t0.5 6.5q0 21 0.5 34.5t1 21t1 11t0.5 5.5v62l-7 90q-23 29 -47 42t-62 22q-5 3 -5 9q0 8 9 13.5t21 8.5t24 4.5t17 1.5l31 -4l29 4l51 -9l102 2l45 3q23 0 45.5 -3.5t45.5 -8.5
q19 -8 35.5 -11.5t39.5 -14.5q21 -13 37.5 -24.5t28 -25.5t18 -32.5t9.5 -45.5l5 -53q0 -12 -4 -14.5t-8 -11.5q-5 -16 -7 -29.5t-7 -24.5l-22 -17.5t-23 -22.5q-5 -7 -14.5 -12l-19 -10t-17 -12t-7.5 -18q0 -9 7 -11.5t13 -8.5q2 -1 6 -7.5l8.5 -14l8 -13.5t3.5 -7l73 -106
q11 -14 22.5 -24.5t27.5 -21.5q3 -2 5.5 -8t5.5 -12.5t7 -13t10 -9.5q16 -17 32 -27.5t37 -26.5q8 -5 19 -8.5t21.5 -8.5t18 -13t7.5 -22q0 -12 -10.5 -14.5t-17.5 -2.5h-76q-17 9 -34.5 9.5t-38.5 2.5q-9 2 -26 11.5t-26 15.5zM627 843q0 -28 16.5 -39.5t39.5 -11.5h19
q1 9 14 15t30.5 10t34.5 7t26 5q11 4 20 15t18 18l18 34q19 33 19 59l-11 35q2 8 3 14t1 10q0 5 -3 9.5t-9 11.5q-23 45 -63 61t-95 16q-2 0 -9 -1t-14.5 -2.5t-14 -2.5t-7.5 -1q-4 -4 -6.5 -12t-3.5 -13q-3 -18 -5 -33.5l-4 -30t-5 -29t-7 -30.5q7 -32 7 -47z" />
    <glyph glyph-name="macron" unicode="&#xaf;" horiz-adv-x="833" 
d="M146 1189q0 20 6 27.5t20 16.5t34.5 12t40.5 3t40.5 -1.5t44.5 -1.5h26q6 1 11.5 1.5t12.5 1t18 0.5h28q28 0 45.5 -0.5t31 -1t26 -2t31.5 -2.5q3 0 13 1t12 1q6 0 12 1q5 0 10 0.5t9 0.5q3 0 8 -0.5t10 -0.5q6 -1 13 -1l27 -2q5 -1 9.5 -1h6.5q7 0 12.5 0.5t13.5 0.5
q20 0 34.5 -6t20.5 -20q2 0 6.5 -11t4.5 -14q0 -20 -5.5 -32t-14.5 -18.5t-22 -8.5t-28 -2q-10 0 -20.5 0.5t-21.5 0.5h-45q-3 0 -16 2.5t-16 2.5q1 0 3.5 -0.5t-1 -1t-18.5 -1t-49 -0.5l-88 -7h-10t-18.5 0.5l-20.5 1t-14 2.5q-11 0 -14.5 1.5t-4.5 1.5h-77h-69
q-1 0 -7.5 1l-15.5 2.5t-17.5 4.5t-14.5 8q-10 7 -11.5 18.5t-1.5 21.5z" />
    <glyph glyph-name="degree" unicode="&#xb0;" horiz-adv-x="645" 
d="M103 1078q-20 39 -30.5 64t-10.5 45q0 47 6 87t27 72l46 74q7 9 24.5 22.5t37.5 25.5t40 21t32 9h77q24 0 42.5 -5.5t39.5 -22.5l43 -41l26 -14q12 -9 17 -21t7.5 -24.5t5.5 -25t11 -22.5q7 -10 12.5 -14.5l10 -8.5t8 -10t6.5 -19v-14.5t0.5 -21t0.5 -23.5v-21
q0 -5 -3 -16t-6.5 -22.5t-7 -20l-3.5 -8.5q-3 -8 -9 -21t-13.5 -26.5l-14 -25t-10.5 -17.5q-16 -7 -25 -15t-15.5 -16t-12.5 -14t-16 -9q-18 -12 -39.5 -15t-42.5 -9h-32q-46 0 -76.5 8.5t-54.5 24.5t-46 38.5zM117 1233q0 -14 7.5 -38t19.5 -48.5t26 -45.5t28 -30
q15 -11 37.5 -20.5t47 -16t48 -10t40.5 -3.5q8 0 13 6.5t13 8.5q9 4 15.5 6.5t11 4.5t8.5 6.5t10 13.5q6 10 14 16.5l15.5 12.5t13.5 14t9 20q0 4 1 14.5t3 10.5q2 9 4.5 16l4.5 13t3.5 12.5t1.5 16.5q0 13 -5 24.5t-11 22t-11 21t-5 22.5q0 19 -9 31t-25 29
q-15 22 -27.5 31t-25 13.5t-26 8.5t-30.5 16h-62q-2 0 -7 -2.5t-12 -5.5t-14 -7l-12 -7q-18 -10 -38 -31t-36.5 -46.5t-27.5 -52t-11 -47.5z" />
    <glyph glyph-name="plusminus" unicode="&#xb1;" horiz-adv-x="1186" 
d="M144 699q11 11 32.5 16.5t48.5 5.5h19q12 0 23 -5h149q34 0 58 3.5t33 12.5q18 18 18 71l-19 235q0 26 4.5 48t14.5 33q16 14 51 14q24 0 45 -6.5t30 -17.5l28 -61l1 -2t2.5 -9t3.5 -21.5t5 -39.5q-9 -3 -16 -11q-7 -11 -11 -21t-4 -24q0 -23 3.5 -50.5t8.5 -47.5
q1 -14 2 -18t1 -8q0 -16 -1.5 -32t-1.5 -27v-2q0 -1 1 -1q7 -7 9 -7q35 0 72.5 8.5t69.5 8.5q14 0 25.5 -3t22.5 -7h154q5 0 13 -3t10 -4q8 -10 8 -30v-76l-17 -19q-33 -33 -90 -33q-45 0 -91 10.5t-84 12.5l-20 -9l-64 -5q-5 -9 -8.5 -26.5t-6.5 -39.5t-4.5 -46.5
t-1.5 -46.5q0 -21 1.5 -38t5.5 -26q16 -17 18.5 -23.5t2.5 -14.5q0 -2 -3.5 -7.5l-7 -11.5t-7 -10.5t-3.5 -5.5l3 -48q0 -22 -8 -30q-13 -10 -45 -10q-26 0 -49 6t-29 11q-13 24 -18.5 53t-8.5 60.5t-5.5 64t-9.5 63.5l21 77q0 11 -7 21q-22 19 -45 19q-16 0 -33 -4t-38 -4
q-24 0 -29 1q-6 7 -24 7l-23 -2q-16 -2 -31 -3.5t-29 -1.5q-19 0 -37 1.5t-36 3.5q-14 0 -26 3.5t-21 17.5q-14 22 -14 61q3 31 6 39.5t3 10.5zM127 42v46q0 14 1 27.5t7 25t19 19.5t37 11h65q28 4 57.5 5.5t60.5 1.5h62q10 0 17.5 1t13.5 2.5t12 2.5t14 1q44 0 87 -11
t86 -11l147 17q16 0 28.5 -4.5t23.5 -4.5q14 0 21 3t16 8h1q1 0 2 0.5t4 0.5q1 0 12.5 -1t32.5 -6q35 0 56 -3t37 -22q4 -4 4 -9q0 -7 -2 -12.5l-4 -11.5q0 -1 1 -5q0 -3 0.5 -7.5t0.5 -10.5v-21.5t-2 -9.5l-7 -28q-12 -11 -27 -17.5t-32 -10.5t-34 -5t-33 -1
q-13 0 -27.5 0.5t-43.5 2.5l-37.5 3.5t-33.5 1.5q-95 0 -188 -2t-187 -6q-43 -2 -86 -5.5t-82 -3.5q-14 0 -30 3.5t-31 10.5t-25.5 15.5t-13.5 19.5z" />
    <glyph glyph-name="twosuperior" unicode="&#xb2;" horiz-adv-x="571" 
d="M29 787q1 3 5 12.5t6 15.5q2 3 9 7.5t15.5 9l16 8.5t11.5 7q20 15 43.5 27t43.5 30q19 16 39 39.5t37 50t28 55t11 54.5q0 25 -21.5 46t-50.5 21l-23 -8h-23q-5 0 -11.5 -1t-11.5 -7q-9 -7 -16 -17.5l-14.5 -21t-16.5 -18t-22 -7.5q-7 0 -13.5 1t-10.5 6v17q0 16 2.5 24
t7.5 12.5t11 9t14 15.5l8 11q14 18 29.5 34t39.5 23l45 6l30 6q14 0 33.5 -2.5t40 -7.5t38.5 -14.5t29 -22.5q4 -5 7 -11.5t5 -7.5l19 -30v-69q0 -11 -8 -20.5l-15 -18.5q-1 -1 -3.5 -9t-13.5 -35q-1 -1 -1 -2q-1 -1 -2 -1q-12 -8 -14.5 -18.5t-12.5 -19.5
q-12 -11 -24.5 -12t-24.5 -8q-1 0 -5 -3.5l-8.5 -7.5l-8.5 -7.5t-5 -4.5q-1 0 -5.5 -3l-10 -7l-10.5 -7.5t-6 -4.5q-3 -2 -8 -7.5l-10.5 -11.5t-9 -12t-3.5 -9t4 -3h19q16 0 29 -1.5t25 -6.5h31q32 0 64 4.5t61 17.5q5 4 6 8t3 8q8 10 20.5 18t25.5 14l9 -30q0 -10 -4.5 -21
t-10.5 -22q-2 -4 -4 -15t-5.5 -22.5t-9.5 -20.5t-16 -9l-10 -1q-23 -3 -45.5 -6.5t-45.5 -3.5q-14 0 -27.5 7.5t-26.5 7.5t-28 -2t-25 -4q-2 0 -7.5 -3t-8.5 -6l-55 15q-7 0 -14 -4t-15 -5q-23 -2 -42 -4t-46 -2q-10 0 -21 3t-11 13v2z" />
    <glyph glyph-name="threesuperior" unicode="&#xb3;" horiz-adv-x="467" 
d="M13 578q0 23 6 29t29 11q6 2 16 6t15 4q9 0 17 -4.5t16.5 -10t17 -10t19.5 -4.5q29 0 53 19t38 44q1 2 2 9t1 11q5 5 12 7t7 12v60q0 4 -2.5 9.5t-6 11t-6.5 9.5t-4 5q-20 26 -43 41.5l-49 33.5q-1 2 -7 9.5t-9 7.5q-14 0 -29 -8.5t-27 -8.5q-8 0 -14.5 8.5t-6.5 15.5
q0 12 10 21t23.5 15.5t27.5 10.5t22 7q1 1 8.5 9.5t10.5 9.5q12 11 26 17.5t22 20.5l8 10q16 26 29.5 54t13.5 58q0 3 -12 15t-20 23q-5 9 -16.5 12t-20.5 3q-23 -8 -37.5 -12t-34.5 -4l-28 1q-9 1 -12 10t-3 15q0 14 3 17l15 8q13 7 20.5 16.5t18.5 18.5q21 14 50 21.5
t55 7.5q13 0 22.5 -5t22.5 -11q21 -8 34 -15.5t21.5 -18t13.5 -24.5t10 -34q1 -6 3.5 -12.5t2.5 -12.5q0 -14 -4.5 -30.5t-11.5 -33t-16.5 -32t-18.5 -25.5q-8 -12 -20 -14t-21 -12q-10 -9 -12.5 -18t-9.5 -17q-12 -4 -12 -17v-4q4 -8 15 -18t24 -20l25 -19t17 -16
q2 -18 7.5 -29.5t11.5 -22t10.5 -23t4.5 -32.5q0 -6 -1 -18.5t-3.5 -26.5t-5 -26t-5.5 -17l-16 -20q-8 -8 -11.5 -22t-12.5 -22q-16 -17 -43.5 -36.5t-59.5 -36.5t-63.5 -28t-55.5 -11q-10 0 -16.5 8t-14.5 16q-16 10 -25.5 20.5t-9.5 33.5z" />
    <glyph glyph-name="acute" unicode="&#xb4;" horiz-adv-x="1076" 
d="M496 1050q0 43 15 79.5t38 69.5t50 63.5t51 62.5l35 50t35 40t44.5 27t63.5 10h14l6.5 -9.5l9.5 -14t9 -15t4 -10.5v-14q0 -14 -1 -22t-7 -21q-7 -12 -14.5 -19t-15 -13l-15 -12t-14.5 -15q-3 -4 -10 -15.5t-9 -13.5q-12 -21 -25 -38t-26 -32l-27 -30t-28 -33l-6.5 -10
t-9 -15.5l-8.5 -15.5t-5 -8q-4 -5 -14.5 -16.5l-22.5 -23.5l-23.5 -23l-15.5 -15h-7q-11 0 -23 3t-23 9.5t-18 16t-7 23.5z" />
    <glyph glyph-name="mu" unicode="&#xb5;" horiz-adv-x="1224" 
d="M11 -287l92 292l9.5 9.5l9.5 9.5q1 3 3 13t3.5 22t3 22.5t2.5 13.5q0 6 2.5 18t5.5 24.5l5.5 23.5t3.5 15q1 1 4 6.5l6.5 12l6.5 12.5l4 8q2 4 5.5 12.5l7 16.5t6 14.5t2.5 7.5q1 3 2.5 16.5t2.5 29t2 28.5t1 16q1 3 4 16l6.5 29t6.5 32t4 25q1 1 2.5 6.5t3 12l3 12.5
t1.5 8q8 37 13.5 82t16 89.5t29 83.5t52.5 66q3 0 8.5 0.5t12 1.5t12 1.5t7.5 0.5q51 0 72 -27.5t21 -74.5q0 -37 -13 -81t-32 -88t-40.5 -84.5l-38.5 -70.5q0 -4 1 -6.5t1 -7.5q0 -25 -10.5 -50t-10.5 -50q0 -19 4 -39.5t13.5 -38t25 -29t38.5 -11.5q26 0 63 13t74 34
t67.5 46t44.5 49q1 1 4 8t6.5 16.5l7 19t5.5 15.5q11 36 25 71.5t25 70.5l30.5 111.5l28.5 109.5q10 18 23.5 28.5t29 18t33 13l35.5 11.5q1 0 2 1q1 0 1.5 0.5t1.5 0.5t1.5 -0.5t1.5 -0.5q1 -1 2 -1q18 -10 30 -20t19 -22.5t9.5 -27.5t2.5 -35v-30q0 -14 -2 -28.5t-9 -28.5
q-3 -7 -11.5 -24l-18 -36l-18 -36t-12.5 -23q2 -2 2 -7q0 -8 -5.5 -17t-12.5 -17.5l-14 -16.5t-10 -13q-8 -11 -15.5 -26.5t-14.5 -32.5t-12.5 -33.5l-9.5 -28.5q-1 -4 -2.5 -11.5l-3 -15.5t-2.5 -14.5t-1 -8.5q1 -2 3.5 -10.5t6 -18.5l6.5 -19t5 -13q2 -5 6.5 -11.5
l9 -12.5t8.5 -10t6 -4h100q17 21 43 33t47 26q13 8 22 24.5t17 34t17.5 32.5t24.5 20q12 4 21 -3t15.5 -18t10 -23.5t3.5 -19.5q0 -35 -16.5 -68.5t-41 -64.5t-52.5 -57.5l-50 -46.5q-8 -8 -21.5 -17t-28.5 -17t-29.5 -13t-24.5 -5h-4q-2 0 -3 1q-6 0 -17 1.5t-22 3.5
l-19.5 3.5t-10.5 2.5q-32 5 -52.5 22t-33.5 39.5t-21 47.5l-15 45.5t-15 34t-21 13.5l-2 -1l-1 -1q-3 -1 -7 -10t-4 -10l-8 -13.5l-10 -16.5l-8.5 -14t-4.5 -6q-20 -20 -47 -40t-58 -36t-63.5 -26.5t-61.5 -10.5q-25 0 -52.5 7.5t-47.5 23.5q-10 9 -16.5 19.5t-13.5 20
t-16.5 16t-24.5 6.5q-18 0 -26.5 -10t-13 -24.5t-6 -30t-4.5 -26.5q-1 -2 -4 -7.5l-6.5 -12l-6.5 -12.5l-4 -8q0 -1 -0.5 -8t-0.5 -16t-0.5 -18t-0.5 -15q0 -21 3.5 -39t8 -35.5t8.5 -36t4 -40.5q0 -38 -5.5 -72.5t-37.5 -62.5q-3 -3 -9.5 -7.5l-12.5 -9l-10.5 -8t-5.5 -4.5
q-2 0 -6.5 -1t-9.5 -1q-2 0 -7.5 1t-7.5 1q-8 3 -20 9t-23.5 12.5t-19.5 11.5t-8 7v90z" />
    <glyph glyph-name="mu" unicode="&#x3bc;" horiz-adv-x="1224" 
d="M11 -287l92 292l9.5 9.5l9.5 9.5q1 3 3 13t3.5 22t3 22.5t2.5 13.5q0 6 2.5 18t5.5 24.5l5.5 23.5t3.5 15q1 1 4 6.5l6.5 12l6.5 12.5l4 8q2 4 5.5 12.5l7 16.5t6 14.5t2.5 7.5q1 3 2.5 16.5t2.5 29t2 28.5t1 16q1 3 4 16l6.5 29t6.5 32t4 25q1 1 2.5 6.5t3 12l3 12.5
t1.5 8q8 37 13.5 82t16 89.5t29 83.5t52.5 66q3 0 8.5 0.5t12 1.5t12 1.5t7.5 0.5q51 0 72 -27.5t21 -74.5q0 -37 -13 -81t-32 -88t-40.5 -84.5l-38.5 -70.5q0 -4 1 -6.5t1 -7.5q0 -25 -10.5 -50t-10.5 -50q0 -19 4 -39.5t13.5 -38t25 -29t38.5 -11.5q26 0 63 13t74 34
t67.5 46t44.5 49q1 1 4 8t6.5 16.5l7 19t5.5 15.5q11 36 25 71.5t25 70.5l30.5 111.5l28.5 109.5q10 18 23.5 28.5t29 18t33 13l35.5 11.5q1 0 2 1q1 0 1.5 0.5t1.5 0.5t1.5 -0.5t1.5 -0.5q1 -1 2 -1q18 -10 30 -20t19 -22.5t9.5 -27.5t2.5 -35v-30q0 -14 -2 -28.5t-9 -28.5
q-3 -7 -11.5 -24l-18 -36l-18 -36t-12.5 -23q2 -2 2 -7q0 -8 -5.5 -17t-12.5 -17.5l-14 -16.5t-10 -13q-8 -11 -15.5 -26.5t-14.5 -32.5t-12.5 -33.5l-9.5 -28.5q-1 -4 -2.5 -11.5l-3 -15.5t-2.5 -14.5t-1 -8.5q1 -2 3.5 -10.5t6 -18.5l6.5 -19t5 -13q2 -5 6.5 -11.5
l9 -12.5t8.5 -10t6 -4h100q17 21 43 33t47 26q13 8 22 24.5t17 34t17.5 32.5t24.5 20q12 4 21 -3t15.5 -18t10 -23.5t3.5 -19.5q0 -35 -16.5 -68.5t-41 -64.5t-52.5 -57.5l-50 -46.5q-8 -8 -21.5 -17t-28.5 -17t-29.5 -13t-24.5 -5h-4q-2 0 -3 1q-6 0 -17 1.5t-22 3.5
l-19.5 3.5t-10.5 2.5q-32 5 -52.5 22t-33.5 39.5t-21 47.5l-15 45.5t-15 34t-21 13.5l-2 -1l-1 -1q-3 -1 -7 -10t-4 -10l-8 -13.5l-10 -16.5l-8.5 -14t-4.5 -6q-20 -20 -47 -40t-58 -36t-63.5 -26.5t-61.5 -10.5q-25 0 -52.5 7.5t-47.5 23.5q-10 9 -16.5 19.5t-13.5 20
t-16.5 16t-24.5 6.5q-18 0 -26.5 -10t-13 -24.5t-6 -30t-4.5 -26.5q-1 -2 -4 -7.5l-6.5 -12l-6.5 -12.5l-4 -8q0 -1 -0.5 -8t-0.5 -16t-0.5 -18t-0.5 -15q0 -21 3.5 -39t8 -35.5t8.5 -36t4 -40.5q0 -38 -5.5 -72.5t-37.5 -62.5q-3 -3 -9.5 -7.5l-12.5 -9l-10.5 -8t-5.5 -4.5
q-2 0 -6.5 -1t-9.5 -1q-2 0 -7.5 1t-7.5 1q-8 3 -20 9t-23.5 12.5t-19.5 11.5t-8 7v90z" />
    </font>
</defs>
</svg>
